imdb
rating

5.6
16 Wishes

16 Wishes (2010)

Drama, Fantasy, Family

Full description
quality   dvdrip bd h264 hd x264

16 Wishes DVD9rip English Klam

Size 1.535 GB   0 seeders     Added 2012-06-27 02:50:51

Stream torrent
Starting‥ You need BitLord! Get it from BitLord.com
To download or stream you need BitLord. Visit them at BitLord.com
[img] image[/img]\r\n\r\nWith: Debby Ryan, Jean-Luc Bilodeau and Anna Mae Routledge\r\n\r\nAbby Jensen popelt om haar zestiende verjaardag te vieren en houdt al sinds ze een klein meisje was een geheim verlanglijstje bij; voor elk jaar één. Wanneer het eindelijk zover is, gooit een rampzalige gebeurtenis roet in het eten, waardoor Abby denkt dat haar verjaardag is verpest. Maar wanneer een mysterieuze doos met magische verjaardagskaarsen arriveert om de zaken ten goede te keren, beginnen Abby's zestien wensen uit te komen. Haar dag wordt steeds beter, todat ze een wens doet die alles dreigt te veranderen.\r\n\r\nA 16 year old girl who has been preparing a list of 16 wishes for 8 years to make them come true on this day \"Her BDay\"...\r\n\r\nhttp://www.imdb.com/title/tt1646876\r\n\r\n[COLOR=#3300FF]------------------------ Dutch Friends ------------------------\r\n---------------------------------------------------------------\r\n- Bezoek ook eens mijn vrienden op:  http://www.Film-Test.nl --\r\n----- voor mijn Nederlandse Sync. ondertitels ---- en meer ----\r\n------- http://www.Film-Test.nl ---- voor Films en meer -------\r\n---------------------------------------------------------------[/COLOR]\r\n\r\nGeneral:\r\n\r\nComplete name                    : 16 Wishes\\16 Wishes.avi\r\nFormat                           : AVI\r\nFormat/Info                      : Audio Video Interleave\r\nFile size                        : 1.43 GiB\r\nDuration                         : 1h 30mn\r\nOverall bit rate                 : 2 270 Kbps\r\nWriting application              : VirtualDubMod 1.5.10.2 (build 2542/release)\r\nWriting library                  : VirtualDubMod build 2542/release\r\n\r\nVideo:\r\n\r\nFormat                           : MPEG-4 Visual\r\nFormat profile                   : Advanced Simple@L5\r\nFormat settings, BVOP            : 2\r\nFormat settings, QPel            : No\r\nFormat settings, GMC             : No warppoints\r\nFormat settings, Matrix          : Default (MPEG)\r\nCodec ID                         : XVID\r\nCodec ID/Hint                    : XviD\r\nDuration                         : 1h 30mn\r\nBit rate                         : 1 941 Kbps\r\nWidth                            : 720 pixels\r\nHeight                           : 400 pixels\r\nDisplay aspect ratio             : 16:9\r\nFrame rate                       : 23.976 fps\r\nColor space                      : YUV\r\nChroma subsampling               : 4:2:0\r\nBit depth                        : 8 bits\r\nScan type                        : Progressive\r\nCompression mode                 : Lossy\r\nBits/(Pixel*Frame)               : 0.281\r\nStream size                      : 1.22 GiB (85%)\r\nWriting library                  : XviD 1.2.1 (UTC 2008-12-04)\r\n\r\nAudio:\r\n\r\nFormat                           : AC-3\r\nFormat/Info                      : Audio Coding 3\r\nMode extension                   : CM (complete main)\r\nCodec ID                         : 2000\r\nDuration                         : 1h 30mn\r\nBit rate mode                    : Constant\r\nBit rate                         : 320 Kbps\r\nChannel(s)                       : 6 channels\r\nChannel positions                : Front: L C R, Side: L R, LFE\r\nSampling rate                    : 48.0 KHz\r\nBit depth                        : 16 bits\r\nCompression mode                 : Lossy\r\nStream size                      : 206 MiB (14%)\r\nAlignment                        : Split accross interleaves\r\nInterleave, duration             : 42 ms (1.00 video frame)\r\nInterleave, preload duration     : 500 ms
Cover/16 Wishes.jpg 50.741 KB
Cover/www.Film-Test.nl.JPG 34.175 KB
16 Wishes.avi 1.535 GB
Gathering some info...

Register and log in Isohunt and see no captcha anymore!

4000 symbols left
Hash B6272C94013004C3A223CAFF1A13C9C5FF877E4B

Related torrents for "16 Wishes DVD9rip English Klam"

Torrent search:

english