imdb
rating

7.0
The Amazing Spider-Man

The Amazing Spider-Man (2012)

Action, Adventure, Fantasy

Full description
quality   hd dvdrip screener x264 fullhd bd

The Amazing Spider-Man (2012) CAM V2 AC3 H264-CRYS

Size 819.244 MB   0 seeders     Added 2012-06-28 23:13:10

Stream torrent
Starting‥ You need BitLord! Get it from BitLord.com
To download or stream you need BitLord. Visit them at BitLord.com
The Amazing Spider-Man (2012)\r\n\r\n-------------------------------------------------------------------\r\nPlease share....Dont hit and run...Seed it back at least once.\r\n\r\nOf course, if you want to seed it back more than once, that would be ok too :)\r\n-------------------------------------------------------------------    \r\n\r\nQUALITY:  PERFECT 10/10\r\n\r\nAll details are here:\r\n\r\nFormat  | AVI           Language | ENGLISH  \r\nSource  | DVD PAL       Subs     | NONE\r\n\r\nQUALITY:  PERFECT 10/10\r\n\r\n- Video\r\nID                               : 0\r\nFormat                           : MPEG-4 Visual\r\nFormat profile                   : Advanced Simple@L5\r\nFormat settings, BVOP            : Yes\r\nFormat settings, QPel            : No\r\nFormat settings, GMC             : No warppoints\r\nFormat settings, Matrix          : Default (H.263)\r\nMuxing mode                      : Packed bitstream\r\nCodec ID                         : XVID\r\nCodec ID/Hint                    : XviD\r\nBit rate                         : 1 345 Kbps\r\nWidth                            : 720 pixels\r\nHeight                           : 314 pixels\r\nDisplay aspect ratio             : 2.25:1\r\nFrame rate                       : 29.970 fps\r\nColor space                      : YUV\r\nChroma subsampling               : 4:2:0\r\nBit depth                        : 8 bits\r\nScan type                        : Progressive\r\nCompression mode                 : Lossy\r\nBits/(Pixel*Frame)               : 0.198\r\nStream size                      : 1.19 GiB (87%)\r\nWriting library                  : XviD 1.1.0 (UTC 2005-11-22)\r\n\r\n- Audio\r\nID                               : 1\r\nFormat                           : AC-3\r\nFormat/Info                      : Audio Coding 3\r\nMode extension                   : CM (complete main)\r\nCodec ID                         : 2000\r\nBit rate mode                    : Constant\r\nBit rate                         : 192 Kbps\r\nChannel(s)                       : 2 channels\r\nChannel positions                : Front: L R\r\nSampling rate                    : 48.0 KHz\r\nBit depth                        : 16 bits\r\nCompression mode                 : Lossy\r\nStream size                      : 175 MiB (12%)\r\nAlignment                        : Aligned on interleaves\r\nInterleave, duration             : 33 ms (1.00 video frame)\r\nInterleave, preload duration     : 512 ms    \r\n\r\n- Greets\r\n\r\nGreets to | X | Joshua08 | IMAGiNE | PrisM | DiGiTAL iNK |\r\n\r\nTorrent Name :  The Amazing Spider Man  2012  CAM V2 AC3 H264 CRYS\r\n\r\n------------------------------------------------------------------------------------------\r\n\r\nGENRE : Action | Adventure | Fantasy\r\n\r\nThe Plot :-Peter Parker finds a clue that might help him understand why his parents\r\n\r\ndisappeared when he was young. His path puts him on a collision course with Dr. Curt\r\n\r\nConnors, his father\'s former partner.\r\nhttp://www.imdb.com/title/tt0948470/\r\n------------------------------------------------------------------------------------------
The Amazing Spider-Man (2012).CAM.V2.AC3.H264-CRYS/ExtraTorrentRG.mp4 1.515 MB
The Amazing Spider-Man (2012).CAM.V2.AC3.H264-CRYS/MOVIE.nfo 4.858 KB
The Amazing Spider-Man (2012).CAM.V2.AC3.H264-CRYS/Sample AVI.avi 2.994 MB
Gathering some info...

Register and log in Isohunt and see no captcha anymore!

4000 symbols left
Hash 623eda8c708485f6722bccc7c642a06fd49909f1

Related torrents for "The Amazing Spider-Man (2012) CAM V2 AC3 H264-CRYS"

Torrent search:

h264 cam 2012