imdb
rating

6.6
EuroTrip

EuroTrip (2004)

Comedy

Full description
quality   dvdrip x264 hd bd hdtv

EuroTrip 2004 DVD9rip English Klam

Size 1.891 GB   0 seeders     Added 2012-06-29 02:54:40

Stream torrent
Starting‥ You need BitLord! Get it from BitLord.com
To download or stream you need BitLord. Visit them at BitLord.com
[img] image[/img]\r\n\r\nWith: Scott Mechlowicz, Jacob Pitts and Michelle Trachtenberg\r\n\r\nDe Amerikaanse tiener Scott heeft een online-vriendinnetje in Duitsland. Haar naam is Mieke, wat Scott dus uitspreekt als Mike. Aangezien hij Mieke als jongen aanziet, schrikt hij wanneer zij vraagt of ze langs mag komen. Als hij dit niet accepteert, wil Mieke niks meer met hem te maken hebben. Maar dan komt Scott erachter dat Mieke eigenlijk een bloedmooi meisje is. Samen met drie vrienden gaat hij op vakantie naar Europa.\r\n\r\nDumped by his girlfriend, a high school grad decides to embark on an overseas adventure in Europe with his friends. \r\n\r\nhttp://www.imdb.com/title/tt0356150\r\n\r\n[COLOR=#3300FF]------------------------ Dutch Friends ------------------------\r\n---------------------------------------------------------------\r\n- Bezoek ook eens mijn vrienden op:  http://www.Film-Test.nl --\r\n----- voor mijn Nederlandse Sync. ondertitels ---- en meer ----\r\n------- http://www.Film-Test.nl ---- voor Films en meer -------\r\n---------------------------------------------------------------[/COLOR]\r\n\r\nGeneral:\r\n\r\nComplete name                    : EuroTrip\\EuroTrip.avi\r\nFormat                           : AVI\r\nFormat/Info                      : Audio Video Interleave\r\nFile size                        : 1.76 GiB\r\nDuration                         : 1h 31mn\r\nOverall bit rate                 : 2 745 Kbps\r\n\r\nVideo:\r\n\r\nFormat                           : MPEG-4 Visual\r\nFormat profile                   : Simple@L3\r\nFormat settings, BVOP            : No\r\nFormat settings, QPel            : No\r\nFormat settings, GMC             : No warppoints\r\nFormat settings, Matrix          : Default (H.263)\r\nCodec ID                         : XVID\r\nCodec ID/Hint                    : XviD\r\nDuration                         : 1h 31mn\r\nBit rate                         : 2 286 Kbps\r\nWidth                            : 652 pixels\r\nHeight                           : 352 pixels\r\nDisplay aspect ratio             : 1.852\r\nFrame rate                       : 23.976 fps\r\nColor space                      : YUV\r\nChroma subsampling               : 4:2:0\r\nBit depth                        : 8 bits\r\nScan type                        : Progressive\r\nCompression mode                 : Lossy\r\nBits/(Pixel*Frame)               : 0.416\r\nStream size                      : 1.47 GiB (83%)\r\nWriting library                  : XviD 1.1.2 (UTC 2006-11-01)\r\n\r\nAudio:\r\n\r\nFormat                           : AC-3\r\nFormat/Info                      : Audio Coding 3\r\nMode extension                   : CM (complete main)\r\nCodec ID                         : 2000\r\nDuration                         : 1h 31mn\r\nBit rate mode                    : Constant\r\nBit rate                         : 448 Kbps\r\nChannel(s)                       : 6 channels\r\nChannel positions                : Front: L C R, Side: L R, LFE\r\nSampling rate                    : 48.0 KHz\r\nBit depth                        : 16 bits\r\nCompression mode                 : Lossy\r\nStream size                      : 294 MiB (16%)\r\nAlignment                        : Aligned on interleaves\r\nInterleave, duration             : 32 ms (0.77 video frame)\r\nInterleave, preload duration     : 384 ms
Cover/EuroTrip.jpg 110.189 KB
Cover/www.Film-Test.nl.JPG 34.175 KB
EuroTrip.avi 1.89 GB
Gathering some info...

Register and log in Isohunt and see no captcha anymore!

4000 symbols left
Hash 08614693B796E678915CC2947EED455CE646DB7E

Related torrents for "EuroTrip 2004 DVD9rip English Klam"

Torrent search:

english 2004