imdb
rating

6.3
Cleanskin

Cleanskin (2012)

Crime, Drama, Thriller

Full description
quality   dvdrip x264 hd bd fullhd

Cleanskin 2012 DVDRIP Xvid AC3-BHRG

Size 1.661 GB   379 seeders     Added 2012-07-01 13:41:04

Stream torrent
Starting‥ You need BitLord! Get it from BitLord.com
10
To download or stream you need BitLord. Visit them at BitLord.com
[img]image[/img]


 
File size                                : 1.52 GiB
Duration                                 : 1h 43mn
Overall bit rate                         : 2 107 Kbps

Video
ID                                       : 0
Format                                   : MPEG-4 Visual
Format profile                           : Advanced Simple@L5
Format settings, BVOP                    : 2
Format settings, QPel                    : No
Format settings, GMC                     : No warppoints
Format settings, Matrix                  : Default (H.263)
Codec ID                                 : XVID
Codec ID/Hint                            : XviD
Duration                                 : 1h 43mn
Bit rate                                 : 1 651 Kbps
Width                                    : 720 pixels
Height                                   : 304 pixels
Display aspect ratio                     : 2.35:1
Frame rate                               : 25.000 fps
Color space                              : YUV
Chroma subsampling                       : 4:2:0
Bit depth                                : 8 bits
Scan type                                : Progressive
Compression mode                         : Lossy
Bits/(Pixel*Frame)                       : 0.302
Stream size                              : 1.19 GiB (78%)
Writing library                          : XviD 1.2.1 (UTC 2008-12-04)

Audio
ID                                       : 1
Format                                   : AC-3
Format/Info                              : Audio Coding 3
Mode extension                           : CM (complete main)
Format settings, Endianness              : Big
Codec ID                                 : 2000
Duration                                 : 1h 43mn
Bit rate mode                            : Constant
Bit rate                                 : 448 Kbps
Channel(s)                               : 6 channels
Channel positions                        : Front: L C R, Side: L R, LFE
Sampling rate                            : 48.0 KHz
Bit depth                                : 16 bits
Compression mode                         : Lossy
Stream size                              : 331 MiB (21%)
Alignment                                : Aligned on interleaves
Interleave, duration                     : 64 ms (1.60 video frames)
Interleave, preload duration             : 192 ms
Title                                    : VTS_01_1 T80 3_2ch 384Kbps DELAY 0ms_new

IMDBhttp://www.imdb.com/title/tt1598873/

source PAL DVD-BHRG

sample provided ......a cracking watch of a film

[img]image[/img]
[img]image[/img]
[img]image[/img]
[img]image[/img]
[img]image[/img]
[img]image[/img]
Cleanskin 2012 DVDRIP Xvid AC3-BHRG/Cleanskin 2012 DVDRIP Xvid AC3-BHRG.avi 1.634 GB
Cleanskin 2012 DVDRIP Xvid AC3-BHRG/Cleanskin 2012 DVDRIP Xvid AC3-BHRG sample.avi 26.998 MB
Cleanskin 2012 DVDRIP Xvid AC3-BHRG/Torrent downloaded from AhaShare.com.txt 59 B
Gathering some info...

Register and log in Isohunt and see no captcha anymore!

4000 symbols left
Hash 9adeb6dfe520ef2c373842a8cb6001f33e63ea0a

Related torrents for "Cleanskin 2012 DVDRIP Xvid AC3-BHRG"

Torrent search:

dvdrip 2012