imdb
rating

6.5
Contraband

Contraband (2012)

Action, Crime, Drama, Thriller

Full description

Contraband 2012 DVD9rip English Klam

Size 1.764 GB   0 seeders     Added 2012-07-02 02:42:32

Stream torrent
Starting‥ You need BitLord! Get it from 1BitLord.com
To download or stream you need BitLord. Visit them at BitLord.com
[img] image[/img]\r\n\r\nWith: Mark Wahlberg, Kate Beckinsale and Ben Foster\r\n\r\nChris Farraday (Wahlberg) heeft zijn criminele verleden reeds lang achter zich gelaten, maar wanneer zijn zwager Andy (Caleb Landry Jones) een drugsdeal voor zijn meedogenloze baas Tim Briggs (Ribisi) verknoeit, wordt Chris gedwongen om opnieuw te doen wat hij het beste kan – smokkelwaar vervoeren – om de schuld van Andy af te lossen. Chris is een legendarische smokkelaar en hij verzamelt met de hulp van zijn best vriend Sebastian (Ben Foster) al gauw een crew rondom zich, voor een allerlaatste reis naar Panama en terug, in de hoop met een paar miljoen vervalste dollarbiljetten terug te keren. De zaken draaien echter verkeerd uit en Chris zal al z’n vaardigheden moeten aanwenden om uit de handen te blijven van de gewelddadige drugsdealers, politie en huurmoordenaars, vooraleer zijn vrouw Kate (Beckinsale) en kinderen het doelwit worden.\r\n\r\nTo protect his brother-in-law from a drug lord, a former smuggler heads to Panama to score millions of dollars in counterfeit bills. \r\n\r\nhttp://www.imdb.com/title/tt1524137\r\n\r\n------------------------ Dutch Friends ------------------------\r\n---------------------------------------------------------------\r\n- Bezoek ook eens mijn vrienden op:  http://www.Film-Test.nl --\r\n----- voor mijn Nederlandse Sync. ondertitels ---- en meer ----\r\n------- http://www.Film-Test.nl ---- voor Films en meer -------\r\n---------------------------------------------------------------\r\n\r\nGeneral:\r\n\r\nComplete name                    : Contraband\\Contraband.avi\r\nFormat                           : AVI\r\nFormat/Info                      : Audio Video Interleave\r\nFile size                        : 1.64 GiB\r\nDuration                         : 1h 45mn\r\nOverall bit rate                 : 2 237 Kbps\r\n\r\nVideo:\r\n\r\nFormat                           : MPEG-4 Visual\r\nFormat profile                   : Simple@L3\r\nFormat settings, BVOP            : No\r\nFormat settings, QPel            : No\r\nFormat settings, GMC             : No warppoints\r\nFormat settings, Matrix          : Default (H.263)\r\nCodec ID                         : XVID\r\nCodec ID/Hint                    : XviD\r\nDuration                         : 1h 45mn\r\nBit rate                         : 1 842 Kbps\r\nWidth                            : 720 pixels\r\nHeight                           : 304 pixels\r\nDisplay aspect ratio             : 2.35:1\r\nFrame rate                       : 25.000 fps\r\nColor space                      : YUV\r\nChroma subsampling               : 4:2:0\r\nBit depth                        : 8 bits\r\nScan type                        : Progressive\r\nCompression mode                 : Lossy\r\nBits/(Pixel*Frame)               : 0.337\r\nStream size                      : 1.35 GiB (82%)\r\nWriting library                  : XviD 1.1.2 (UTC 2006-11-01)\r\n\r\nAudio:\r\n\r\nFormat                           : AC-3\r\nFormat/Info                      : Audio Coding 3\r\nMode extension                   : CM (complete main)\r\nCodec ID                         : 2000\r\nDuration                         : 1h 45mn\r\nBit rate mode                    : Constant\r\nBit rate                         : 384 Kbps\r\nChannel(s)                       : 6 channels\r\nChannel positions                : Front: L C R, Side: L R, LFE\r\nSampling rate                    : 48.0 KHz\r\nBit depth                        : 16 bits\r\nCompression mode                 : Lossy\r\nStream size                      : 289 MiB (17%)\r\nAlignment                        : Aligned on interleaves\r\nInterleave, duration             : 32 ms (0.80 video frame)\r\nInterleave, preload duration     : 320 ms
Cover/Contraband.jpg 61.39 KB
Cover/www.Film-Test.nl.JPG 34.175 KB
Contraband.avi 1.764 GB
Gathering some info...

Register and log in Isohunt and see no captcha anymore!

4000 symbols left
Hash 95B33411426A07C76E4F8E0CDDFE1C00B8EEAB36

Related torrents for "Contraband 2012 DVD9rip English Klam"

Torrent search:

english 2012