imdb
rating

6.9
Madagascar 3: Europe's Most Wanted

Madagascar 3: Europe's Most Wanted (2012)

Animation

Full description
quality   screener x264 dvdrip dvd

Madagascar 3 Europes Most Wanted 2012 DVDRip XViD AC3-ADTRG

Size 730.643 MB   0 seeders     Added 2012-07-02 02:46:23

Stream torrent
Starting‥ You need BitLord! Get it from BitLord.com
To download or stream you need BitLord. Visit them at BitLord.com
Alex, Marty, Gloria and Melman are still fighting to get home to their beloved Big Apple. Their journey takes them through Europe where they find the perfect cover: a traveling circus, which they reinvent - Madagascar style. \r\n\r\nhttp://www.imdb.com/title/tt1277953/\r\n\r\nSource -   Spanish  Thanks\r\n\r\nComplete name                            : Madagascar.3.Europes.Most.Wanted.TS.XViD.AC3-ADTRG.avi\r\nFormat                                   : AVI\r\nFormat/Info                              : Audio Video Interleave\r\nFile size                                : 691 MiB\r\nDuration                                 : 1h 22mn\r\nOverall bit rate                         : 1 177 Kbps\r\nWriting application                      : Lavf52.61.0\r\nWriting library                          : VirtualDub build 34703/release\r\n\r\nVideo\r\nID                                       : 0\r\nFormat                                   : MPEG-4 Visual\r\nFormat profile                           : Advanced Simple@L5\r\nFormat settings, BVOP                    : 2\r\nFormat settings, QPel                    : No\r\nFormat settings, GMC                     : No warppoints\r\nFormat settings, Matrix                  : Default (H.263)\r\nMuxing mode                              : Packed bitstream\r\nCodec ID                                 : XVID\r\nCodec ID/Hint                            : XviD\r\nDuration                                 : 1h 22mn\r\nBit rate                                 : 1 101 Kbps\r\nWidth                                    : 640 pixels\r\nHeight                                   : 336 pixels\r\nDisplay aspect ratio                     : 1.905\r\nFrame rate                               : 29.970 fps\r\nColor space                              : YUV\r\nChroma subsampling                       : 4:2:0\r\nBit depth                                : 8 bits\r\nScan type                                : Progressive\r\nCompression mode                         : Lossy\r\nBits/(Pixel*Frame)                       : 0.171\r\nStream size                              : 647 MiB (94%)\r\nWriting library                          : XviD 64\r\n\r\nAudio\r\nID                                       : 1\r\nFormat                                   : MPEG Audio\r\nFormat version                           : Version 1\r\nFormat profile                           : Layer 3\r\nCodec ID                                 : 55\r\nCodec ID/Hint                            : MP3\r\nDuration                                 : 1h 22mn\r\nBit rate mode                            : Constant\r\nBit rate                                 : 64.0 Kbps\r\nChannel(s)                               : 2 channels\r\nSampling rate                            : 44.1 KHz\r\nCompression mode                         : Lossy\r\nStream size                              : 37.6 MiB (5%)\r\nAlignment                                : Split accross interleaves\r\nInterleave, duration                     : 33 ms (1.00 video frame)\r\nInterleave, preload duration             : 500 ms\r\n\r\n\r\nEncoder notes- ok, cam was a wierd source, like two sources choped together with loads of dupe frames etc. anyway used the magical boom boom filters and compressed it down.\r\naudio is awesome as usual (Thanks Bro), a little crackle in one song. Compressed audio down, but way better in propotion to the video, when this secret 720 cam appears,\r\nmaybe we will add some super duper HQ Line to it. but im sure you will agree , this is great for under 700mb. Enjoy
Madagascar.3.Europes.Most.Wanted.TS.XViD.AC3-ADTRG.rar 730.43 MB
READ ME.docx 109.49 KB
madagascar3.jpg 100.257 KB
Gathering some info...

Register and log in Isohunt and see no captcha anymore!

4000 symbols left
Hash 4812A36D1C0C970C5F0716FCEFF31A4C940E71D0

Related torrents for "Madagascar 3 Europes Most Wanted 2012 DVDRip XViD AC3-ADTRG"

Torrent search:

dvdrip 2012