imdb
rating

7.3
The Hunger Games

The Hunger Games (2012)

Adventure, Fantasy, Science Fiction

Full description

The Hunger Games (2012) R6 HDRip XviD X264- INFERNO

Size 1.868 GB   0 seeders     Added 2012-07-03 02:55:21

Stream torrent
Starting‥ You need BitLord! Get it from BitLord.com
To download or stream you need BitLord. Visit them at BitLord.com
The Hunger Games 2012\r\n\r\n\r\nIMDb: http://www.imdb.com/title/tt1392170/\r\n\r\nPlot:\r\n----\r\nSet in a future where the Capitol selects a boy and girl from\r\nthe twelve districts to fight to the death on live television,\r\nKatniss Everdeen volunteers to take her younger sister's place\r\nfor the latest match.\r\n--------------------\r\n\r\n\r\nDetails:\r\n-------\r\nVideo\r\nID                               : 0\r\nFormat                           : MPEG-4 Visual\r\nFormat profile                   : AdvancedSimple@L5\r\nFormat settings, BVOP            : Yes\r\nFormat settings, QPel            : No\r\nFormat settings, GMC             : No warppoints\r\nFormat settings, Matrix          : Custom\r\nCodec ID                         : XVID\r\nCodec ID/Hint                    : XviD\r\nDuration                         : 2h 22mn\r\nBit rate                         : 1 625 Kbps\r\nWidth                            : 720 pixels\r\nHeight                           : 304 pixels\r\nDisplay aspect ratio             : 2.35:1\r\nFrame rate                       : 23.976 fps\r\nResolution                       : 24 bits\r\nColorimetry                      : 4:2:0\r\nScan type                        : Progressive\r\nBits/(Pixel*Frame)               : 0.310\r\nStream size                      : 691 MiB (99%)\r\nWriting library                  : XviD 58\r\nAudio\r\nID                               : 1\r\nFormat                           : AC-3\r\nFormat/Info                      : Audio Coding 3\r\nCodec ID                         : 2000\r\nDuration                         : 2h 22mn\r\nBit rate mode                    : Constant\r\nBit rate                         : 192 Kbps\r\nChannel(s)                       : 2 channels\r\nChannel positions                : L R\r\nSampling rate                    : 48.0 KHz\r\nStream size                      : 147 MiB (11%)\r\nAlignment                        : Aligned on interleaves\r\nInterleave, duration             : 64 ms (1.53 video frames)\r\nInterleave, preload duration     : 192 ms\r\n\r\n\r\nScreenshots:\r\n-----------\r\n \r\nimage/ \r\nimage/ \r\nimage/ \r\nimage/ \r\nimage/ \r\nimage/ \r\nimage/ \r\nimage/ \r\nimage/ \r\nimage/
COVER.jpg 122.807 KB
The Hunger Games (2012) R6 HDRip XviD X264- INFERNO- sample.avi 13.679 MB
The Hunger Games (2012) R6 HDRip XviD X264- INFERNO.nfo 653 B
Gathering some info...

Register and log in Isohunt and see no captcha anymore!

4000 symbols left
Hash 0E6D778FAA3A1ED2DA7C71C8D41CA720117DCC51

Related torrents for "The Hunger Games (2012) R6 HDRip XviD X264- INFERNO"

Torrent search:

x264 hd 2012 dvd