imdb
rating

5.9
Battleship

Battleship (2012)

Action, Adventure, Science Fiction, Thriller

Full description

BattleShip 2012 TS XViD AC3-ADTRG rar

Size 0 B   0 seeders     Added 2012-07-03 16:04:33

Stream torrent
Starting‥ You need BitLord! Get it from 1BitLord.com
To download or stream you need BitLord. Visit them at BitLord.com
BattleShip.2012.REPACK.TS.XViD.AC3-ADTRG\r\n\r\nA fleet of ships is forced to do battle with an armada of unknown origins in order to discover and thwart their destructive goals.  \r\n\r\nhttp://www.imdb.com/title/tt1440129/\r\n\r\nSource -  720p Cam             SMY                Thanks\r\nSource -  missing scenes  -    Twix               Thanks\r\nSource -  LiNe Audio      -    Dragon Exclusive   Thanks, awesome work bro\r\n\r\nComplete name                            : BattleShip.2012.REPACK.TS.XViD.AC3-ADTRG.avi\r\nFormat                                   : AVI\r\nFormat/Info                              : Audio Video Interleave\r\nFile size                                : 1.52 GiB\r\nDuration                                 : 2h 0mn\r\nOverall bit rate                         : 1 805 Kbps\r\nWriting library                          : VirtualDub build 34703/release\r\n\r\nVideo\r\nID                                       : 0\r\nFormat                                   : MPEG-4 Visual\r\nCodec ID                                 : XVID\r\nBit rate                                 : 1 604 Kbps\r\nWidth                                    : 720 pixels\r\nHeight                                   : 320 pixels\r\nDisplay aspect ratio                     : 2.25:1\r\nFrame rate                               : 30.000 fps\r\nStream size                              : 1.35 GiB (89%)\r\n\r\nAudio\r\nID                                       : 1\r\nFormat                                   : AC-3\r\nBit rate                                 : 192 Kbps\r\nChannel(s)                               : 2 channels\r\nChannel positions                        : Front: L R\r\nSampling rate                            : 48.0 KHz\r\nStream size                              : 163 MiB (11%)\r\n\r\n\r\n\r\n\r\n\r\nEncoder - LiMeY\r\nK, i dropped the ball on first one, played fine on laptop, not so fine on WDTV.\r\nremoved long black screen at beginning , a few dupe frames and synced for your viewing pleasure.\r\nmight still be a few 1 second glitches on joins but at least 99% synced so enjoy.\r\n\r\n\r\nGood things come in small packages, So feel the wrath of my compression
BattleShip.2012.TS.XViD.AC3-ADTRG.rar 0 B
Gathering some info...

Register and log in Isohunt and see no captcha anymore!

4000 symbols left
Hash 80f8d9f3dacb2c087c7f97370c8c50873986defe

Related torrents for "BattleShip 2012 TS XViD AC3-ADTRG rar"

Torrent search:

telesync 2012