Spider-Man

Spider-Man (1994)

Full description

The Amazing Spider-Man 2012.TS XviD AC3-ADTRG

Size 819.244 MB   0 seeders     Added 2012-07-04 10:11:55

Stream torrent
Starting‥ You need BitLord! Get it from BitLord.com
To download or stream you need BitLord. Visit them at BitLord.com
Discription For The Movie

################################################################################
Torrent  Name: The Amazing Spider Man 2012 TS XviD AC3 ADTRG
################################################################################
The Amazing Spider-Man (2012)

-------------------------------------------------------------------
Please share....Dont hit and run...Seed it back at least once.

Of course, if you want to seed it back more than once, that would be ok too :)
-------------------------------------------------------------------    

QUALITY:  PERFECT 10/10

All details are here:

Format  | AVI           Language | ENGLISH  
Source  | DVD PAL       Subs     | NONE

QUALITY:  PERFECT 10/10

- Video
ID                               : 0
Format                           : MPEG-4 Visual
Format profile                   : Advanced Simple@L5
Format settings, BVOP            : Yes
Format settings, QPel            : No
Format settings, GMC             : No warppoints
Format settings, Matrix          : Default (H.263)
Muxing mode                      : Packed bitstream
Codec ID                         : XVID
Codec ID/Hint                    : XviD
Bit rate                         : 1 345 Kbps
Width                            : 720 pixels
Height                           : 314 pixels
Display aspect ratio             : 2.25:1
Frame rate                       : 29.970 fps
Color space                      : YUV
Chroma subsampling               : 4:2:0
Bit depth                        : 8 bits
Scan type                        : Progressive
Compression mode                 : Lossy
Bits/(Pixel*Frame)               : 0.198
Stream size                      : 1.19 GiB (87%)
Writing library                  : XviD 1.1.0 (UTC 2005-11-22)

- Audio
ID                               : 1
Format                           : AC-3
Format/Info                      : Audio Coding 3
Mode extension                   : CM (complete main)
Codec ID                         : 2000
Bit rate mode                    : Constant
Bit rate                         : 192 Kbps
Channel(s)                       : 2 channels
Channel positions                : Front: L R
Sampling rate                    : 48.0 KHz
Bit depth                        : 16 bits
Compression mode                 : Lossy
Stream size                      : 175 MiB (12%)
Alignment                        : Aligned on interleaves
Interleave, duration             : 33 ms (1.00 video frame)
Interleave, preload duration     : 512 ms    

- Greets

Greets to | X | Joshua08 | IMAGiNE | PrisM | DiGiTAL iNK |

Torrent Name :

------------------------------------------------------------------------------------------


GENRE : Action | Adventure | Fantasy

The Plot :-Peter Parker finds a clue that might help him understand why his parents disappeared when he was young. His path puts him on a collision course with Dr. Curt Connors, his father's former partner.
http://www.imdb.com/title/tt0948470/
------------------------------------------------------------------------------------------
------------------------------------------------------------------------------------------
The Amazing Spider-Man 2012.TS XviD AC3-ADTRG/ExtraTorrentRG.mp4 1.515 MB
The Amazing Spider-Man 2012.TS XviD AC3-ADTRG/MOVIE.nfo 4.858 KB
The Amazing Spider-Man 2012.TS XviD AC3-ADTRG/Sample AVI.avi 2.994 MB
Gathering some info...

Register and log in Isohunt and see no captcha anymore!

4000 symbols left
Hash 5ddbafba0722f0990016e55b9668432c0e60da57

Related torrents for "The Amazing Spider-Man 2012.TS XviD AC3-ADTRG"

Torrent search:

telesync 2012