Ted 2012 TS XViD AC3-ADTRG

Size 727.832 MB   0 seeders     Added 2012-07-04 16:47:23

To download or stream you need BitLord. Visit them at BitLord.com
Source -   Spanish  Thanks

Complete name                            :Ted 2012 TS.XViD.AC3-ADTRG
Format                                   : AVI
Format/Info                              : Audio Video Interleave
File size                                : 697 MiB
Duration                                 : 1h 22mn
Overall bit rate                         : 1 177 Kbps
Writing application                      : Lavf52.61.0
Writing library                          : VirtualDub build 34703/release

Video
ID                                       : 0
Format                                   : MPEG-4 Visual
Format profile                           : Advanced Simple@L5
Format settings, BVOP                    : 2
Format settings, QPel                    : No
Format settings, GMC                     : No warppoints
Format settings, Matrix                  : Default (H.263)
Muxing mode                              : Packed bitstream
Codec ID                                 : XVID
Codec ID/Hint                            : XviD
Duration                                 : 1h 46mn
Bit rate                                 : 1 101 Kbps
Width                                    : 640 pixels
Height                                   : 336 pixels
Display aspect ratio                     : 1.905
Frame rate                               : 29.970 fps
Color space                              : YUV
Chroma subsampling                       : 4:2:0
Bit depth                                : 8 bits
Scan type                                : Progressive
Compression mode                         : Lossy
Bits/(Pixel*Frame)                       : 0.171
Stream size                              : 647 MiB (94%)
Writing library                          : XviD 64

Audio
ID                                       : 1
Format                                   : MPEG Audio
Format version                           : Version 1
Format profile                           : Layer 3
Codec ID                                 : 55
Codec ID/Hint                            : MP3
Duration                                 : 1h 22mn
Bit rate mode                            : Constant
Bit rate                                 : 64.0 Kbps
Channel(s)                               : 2 channels
Sampling rate                            : 44.1 KHz
Compression mode                         : Lossy
Stream size                              : 37.6 MiB (5%)
Alignment                                : Split accross interleaves
Interleave, duration                     : 33 ms (1.00 video frame)
Interleave, preload duration             : 500 ms
Ted 2012 TS.XViD.AC3-ADTRG/Ted 2012 TS.XViD.AC3-ADTRG/Ted 2012 TS.XViD.AC3-ADTRG.rar 727.831 MB
Ted 2012 TS.XViD.AC3-ADTRG/Ted 2012 TS.XViD.AC3-ADTRG/read.txt 656 B
Ted 2012 TS.XViD.AC3-ADTRG/Ted 2012 TS.XViD.AC3-ADTRG/Ted 2012 TS.XViD.AC3-ADTRG.nfo 211 B
Gathering some info...

Register and log in Isohunt and see no captcha anymore!

4000 symbols left
Hash d5388499e9889b7e5d5494663ac0e82cf5ad7e00