Madagascar 3 (2012) 720p Full HD XViD - HIGHQUALITY

Size 1.502 GB   0 seeders     Added 2012-07-05 15:41:22

To download or stream you need BitLord. Visit them at BitLord.com
General\r\nID                                       : 2018 (0x7EC)\r\nComplete name                            : Madagascar 3 (2012) 720p Full HD XViD - HIGHQUALITY\r\nFormat                                   : MPEG-TS\r\nFile size                                : 1.39 Gib\r\nDuration                                 : 122 mn 26s\r\nOverall bit rate                         : 9 175 Kbps\r\n\r\nVideo\r\nID                                       : 512 (0x200)\r\nMenu ID                                  : 3814 (0xEE6)\r\nFormat                                   : AVC\r\nFormat/Info                              : Advanced Video Codec\r\nFormat version                           : Version 2\r\nFormat profile                           : Main@L4.0\r\nFormat settings, CABAC                   : Yes\r\nFormat settings, ReFrames                : 4 frames\r\nFormat settings, GOP                     : M=4, N=12\r\nCodec ID                                 : 27\r\nDuration                                 : 122 mn 26s\r\nBit rate                                 : 8 140 Kbps\r\nWidth                                    : 1 920 pixels\r\nHeight                                   : 1 080 pixels\r\nDisplay aspect ratio                     : 16:9\r\nFrame rate                               : 25.000 fps\r\nColor space                              : YUV\r\nChroma subsampling                       : 4:2:0\r\nBit depth                                : 8 bits\r\nScan type                                : Interlaced\r\nScan order                               : Top Field First\r\nBits/(Pixel*Frame)                       : 0.157\r\nStream size                              : 785 MiB (89%)\r\nColor primaries                          : BT.709-5, BT.1361, IEC 61966-2-4, SMPTE RP177\r\nTransfer characteristics                 : BT.709-5, BT.1361\r\nMatrix coefficients                      : BT.709-5, BT.1361, IEC 61966-2-4 709, SMPTE RP177\r\n\r\nAudio #1\r\nID                                       : 640 (0x280)\r\nMenu ID                                  : 3814 (0xEE6)\r\nFormat                                   : MPEG Audio\r\nFormat version                           : Version 1\r\nFormat profile                           : Layer 2\r\nCodec ID                                 : 4\r\nDuration                                 : 122 mn 26s\r\nBit rate mode                            : Constant\r\nBit rate                                 : 192 Kbps\r\nChannel(s)                               : 2 channels\r\nSampling rate                            : 48.0 KHz\r\nCompression mode                         : Lossy\r\nDelay relative to video                  : -550ms\r\nStream size                              : 16.2 MiB (2%)\r\nLanguage                                 : nar\r\n\r\nAudio #2\r\nID                                       : 660 (0x294)\r\nMenu ID                                  : 3814 (0xEE6)\r\nFormat                                   : AC-3\r\nFormat/Info                              : Audio Coding 3\r\nFormat profile                           : Dolby Digital\r\nMode extension                           : CM (complete main)\r\nCodec ID                                 : 6\r\nDuration                                 : 124 mn 46s\r\nBit rate mode                            : Constant\r\nBit rate                                 : 384 Kbps\r\nChannel(s)                               : 2 channels\r\nChannel positions                        : Front: L R\r\nSampling rate                            : 48.0 KHz\r\nBit depth                                : 16 bits\r\nCompression mode                         : Lossy\r\nDelay relative to video                  : -593ms\r\nStream size                              : 32.4 MiB (4%)\r\nLanguage                                 : English\r\n\r\nText\r\nID                                       : 2308 (0x904)-888\r\nMenu ID                                  : 3814 (0xEE6)\r\nFormat                                   : Teletext Subtitle\r\nLanguage                                 : English\r\n\r\nMenu\r\nID                                       : 256 (0x100)\r\nMenu ID                                  : 3814 (0xEE6)\r\nDuration                                 : 122 mn 26s\r\nList                                     : 512 (0x200) (AVC) / 640 (0x280) (MPEG Audio, nar) / 660 (0x294) (AC-3, English) / 2308 (0x904) ()\r\nLanguage                                 :  / nar / English\r\n\r\n\r\nScreenShots:\r\nimage/\r\n\r\n\r\nEnjoy!
Madagascar 3 (2012) 720p Full HD XViD - HIGHQUALITY/Madagascar 3 (2012) 720p Full HD XViD - HIGHQUALITY.rar 1.496 GB
Madagascar 3 (2012) 720p Full HD XViD - HIGHQUALITY/moviestorrent2012.blogspot.com.zip 5.243 MB
Madagascar 3 (2012) 720p Full HD XViD - HIGHQUALITY/Capture/1.jpg 179.33 KB
Gathering some info...

Register and log in Isohunt and see no captcha anymore!

4000 symbols left
Hash 1522e262a46094a5379d82e9caa177d971c64f85