Paradox

Paradox (2009)

Action, Crime, Drama, Family, Mystery, Sci-Fi, Thriller

Full description

Paradox 2009 Miniserie DVD9rip English Klam

Size 3.625 GB   0 seeders     Added 2012-07-06 02:48:03

Stream torrent
Starting‥ You need BitLord! Get it from BitLord.com
10
To download or stream you need BitLord. Visit them at BitLord.com
[img] image[/img]\r\n\r\nOp een dag krijgt de jonge Dr. Christian King, een autoriteit in de astrofysica acht beelden doorgestuurd in zijn laboratorium. Deze beelden blijken doorgestuurd te zijn langs zijn satelliet, maar hij heeft geen idee waar ze vandaan komen. Bovendien blijken de beelden gemaakt te zijn achttien uur in de toekomst. De beeldengeven fragmentarische details weer van iets dat op een ramp lijkt. Hij contacteert de politie en vraagt om iemand te sturen met een open geest. Rebecca Flint wordt samen met haar collega's Ben Holt en Callum Gada op de zaak gezet. Nadat de jonge dokter eerst niet geloofd wordt door de drie politiemensen volgen er al snel aanwijzingen die Rebecca doet geloven dat het toch allemaal echt is. Uiteindelijk kon de ramp niet voorkomen worden. In de volgende afleveringen komen telkens beelden binnen. Het proberen te achterhalen van de toekomst en het voorkomen van een ramp of misdaad gebeurd met wisselend succes.\r\n\r\nMysterious images that show incidents 18 hours before they happen are transmitted from space. As a space scientist attempts to explain their source, detectives race against time to change the future.\r\n\r\nhttp://www.imdb.com/title/tt1460746\r\n\r\n[COLOR=#3300FF]------------------------ Dutch Friends ------------------------\r\n---------------------------------------------------------------\r\n- Bezoek ook eens mijn vrienden op:  http://www.Film-Test.nl --\r\n----- voor mijn Nederlandse Sync. ondertitels ---- en meer ----\r\n------- http://www.Film-Test.nl ---- voor Films en meer -------\r\n---------------------------------------------------------------[/COLOR]\r\n\r\nGeneral:\r\n\r\nComplete name                    : Paradox\\Part01.avi\r\nFormat                           : AVI\r\nFormat/Info                      : Audio Video Interleave\r\nFile size                        : 681 MiB\r\nDuration                         : 59mn 5s\r\nOverall bit rate                 : 1 610 Kbps\r\n\r\nVideo:\r\n\r\nFormat                           : MPEG-4 Visual\r\nFormat profile                   : Simple@L3\r\nFormat settings, BVOP            : No\r\nFormat settings, QPel            : No\r\nFormat settings, GMC             : No warppoints\r\nFormat settings, Matrix          : Default (H.263)\r\nCodec ID                         : XVID\r\nCodec ID/Hint                    : XviD\r\nDuration                         : 59mn 5s\r\nBit rate                         : 1 407 Kbps\r\nWidth                            : 704 pixels\r\nHeight                           : 396 pixels\r\nDisplay aspect ratio             : 16:9\r\nFrame rate                       : 25.000 fps\r\nColor space                      : YUV\r\nChroma subsampling               : 4:2:0\r\nBit depth                        : 8 bits\r\nScan type                        : Progressive\r\nCompression mode                 : Lossy\r\nBits/(Pixel*Frame)               : 0.202\r\nStream size                      : 595 MiB (87%)\r\nWriting library                  : XviD 1.1.2 (UTC 2006-11-01)\r\n\r\nAudio:\r\n\r\nFormat                           : AC-3\r\nFormat/Info                      : Audio Coding 3\r\nMode extension                   : CM (complete main)\r\nCodec ID                         : 2000\r\nDuration                         : 59mn 5s\r\nBit rate mode                    : Constant\r\nBit rate                         : 192 Kbps\r\nChannel(s)                       : 2 channels\r\nChannel positions                : Front: L R\r\nSampling rate                    : 48.0 KHz\r\nBit depth                        : 16 bits\r\nCompression mode                 : Lossy\r\nStream size                      : 81.1 MiB (12%)\r\nAlignment                        : Aligned on interleaves\r\nInterleave, duration             : 32 ms (0.80 video frame)\r\nInterleave, preload duration     : 320 ms
Cover/Paradox.jpg 96.85 KB
Cover/www.Film-Test.nl.JPG 34.175 KB
Part04.avi 735.655 MB
Gathering some info...

Register and log in Isohunt and see no captcha anymore!

4000 symbols left
Hash D5FAD8B64EDC34D52FA9F2D9C4750536419B331B

Related torrents for "Paradox 2009 Miniserie DVD9rip English Klam"

Torrent search:

2009 english