imdb
rating

6.3
Young Adult

Young Adult (2011)

Comedy, Drama, Romance

Full description
quality   dvdrip dvd cam

Young Adult 2011 DVDRip XviD SLiCK

Size 1.274 GB   0 seeders     Added 2012-07-06 02:50:37

Stream torrent
Starting‥ You need BitLord! Get it from BitLord.com
To download or stream you need BitLord. Visit them at BitLord.com
Looking for fast download speeds come join http://dream-torrents.com for all the latest releases, with friendly staff online radio and games and much much more.\r\n-\r\n-\r\n.\r\n\r\nYoung Adult (2011) DVDRip XviD SLiCK\r\n\r\n\r\n\r\n\r\nComplete name : Young Adult (2011) DVDRip XviD SLiCK.avi\r\n\r\nFormat : AVI\r\n\r\nFormat/Info : Audio Video Interleave\r\n\r\nFile size : 1.19 GiB\r\n\r\nDuration : 1h 29mn\r\n\r\nOverall bit rate : 1 892 Kbps\r\n\r\n\r\n\r\nVideo\r\n\r\nID : 0\r\n\r\nFormat : MPEG-4 Visual\r\n\r\nFormat profile : Advanced Simple@L5\r\n\r\nFormat settings, BVOP : 2\r\n\r\nFormat settings, QPel : Yes\r\n\r\nFormat settings, GMC : No warppoints\r\n\r\nFormat settings, Matrix : Default (H.263)\r\n\r\nCodec ID : XVID\r\n\r\nCodec ID/Hint : XviD\r\n\r\nDuration : 1h 29mn\r\n\r\nBit rate : 1 500 Kbps\r\n\r\nWidth : 720 pixels\r\n\r\nHeight : 400 pixels\r\n\r\nDisplay aspect ratio : 16:9\r\n\r\nFrame rate : 25.000 fps\r\n\r\nColor space : YUV\r\n\r\nChroma subsampling : 4:2:0\r\n\r\nBit depth : 8 bits\r\n\r\nScan type : Progressive\r\n\r\nCompression mode : Lossy\r\n\r\nBits/(Pixel*Frame) : 0.208\r\n\r\nStream size : 963 MiB (79%)\r\n\r\nWriting library : XviD 1.2.1 (UTC 2008-12-04)\r\n\r\n\r\n\r\nAudio\r\n\r\nID : 1\r\n\r\nFormat : AC-3\r\n\r\nFormat/Info : Audio Coding 3\r\n\r\nMode extension : CM (complete main)\r\n\r\nFormat settings, Endianness : Big\r\n\r\nCodec ID : 2000\r\n\r\nDuration : 1h 29mn\r\n\r\nBit rate mode : Constant\r\n\r\nBit rate : 384 Kbps\r\n\r\nChannel(s) : 6 channels\r\n\r\nChannel positions : Front: L C R, Side: L R, LFE\r\n\r\nSampling rate : 48.0 KHz\r\n\r\nBit depth : 16 bits\r\n\r\nCompression mode : Lossy\r\n\r\nStream size : 247 MiB (20%)\r\n\r\nAlignment : Aligned on interleaves\r\n\r\nInterleave, duration : 64 ms (1.60 video frames)\r\n\r\nInterleave, preload duration : 192 ms\r\n\r\nTitle : Young Adult (2011) SLiCK\r\n\r\n\r\n\r\n\r\n\r\n\r\n\r\n\r\n\r\n\r\n\r\n94 min - Comedy | Drama - 3 February 2012 (UK)\r\n\r\n\r\n\r\nCharlize Theron plays Mavis Gary, a writer of teen literature who returns to her small hometown to relive her glory days and attempt to reclaim her happily married high school sweetheart (Patrick Wilson). When returning home proves more difficult than she thought, Mavis forms an unusual bond with a former classmate (Patton Oswalt) who hasn't quite gotten over high school, either.\r\n\r\n\r\n\r\nIMDb Link:\r\n\r\nhttp://www.imdb.com/title/tt1625346/\r\n\r\n\r\n\r\n\r\n\r\n  \r\n \r\n This image has been resized. Click the image to view the full image. The original image is sized: 720 x 400\r\n \r\n  \r\n  \r\n\r\n\r\nGreets\r\n\r\nHive-CM8, INSPiRAL, UnKnOwN, PRESTiGE, DiVERSiTY, INFERNO, TRiNiTY, Feel-Free, eXceSs,\r\n\r\nCrEwSaDe, DQ1, cOOkies, ADTRG, iLLUSiON, AXED, 26K And Other Good P2P Groups Out There...\r\n\r\n\r\n\r\n**** IF YOU LIKE THIS TORRENT, PLEASE HELP DREAM TORRENTS CONTINUE THIS GREAT WORK BY GIVING A SMALL DONATION TO HELP WITH THE SERVER COSTS ( DONATE HERE) ****\r\n\r\n>>>This Torrent Has Been Edited By thewac <<
Young Adult (2011) DVDRip XviD SLiCK.avi 1.274 GB
Young Adult (2011).nfo 6.584 KB
Gathering some info...

Register and log in Isohunt and see no captcha anymore!

4000 symbols left
Hash 50E8598CC88C9247673E9B4BC0B62F7A8C2B51E7

Related torrents for "Young Adult 2011 DVDRip XviD SLiCK"

Torrent search:

dvdrip 2011