imdb
rating

5.3
Freddy Frogface

Freddy Frogface (2011)

Animation, Comedy, Family

Full description
quality   dvdrip x264 bd hd h264 fullhd

Freddy Frogface Dvdrip Xvid AC3 TVAL avi

Size 886.983 MB   0 seeders     Added 2012-07-06 02:50:43

Stream torrent
Starting‥ You need BitLord! Get it from BitLord.com
To download or stream you need BitLord. Visit them at BitLord.com
Looking for fast download speeds come join http://dream-torrents.com for all the latest releases, with friendly staff online radio and games and much much more.\r\n-\r\n-\r\n.\r\nFreddy Frogface Dvdrip Xvid AC3 TVAL\r\n\r\n \r\n\r\n\r\nIMDB: http://www.imdb.com/title/tt1545319/\r\n\r\n\r\n\r\nEnglish audio\r\n\r\n\r\n\r\nGeneral\r\n\r\nFormat : AVI\r\n\r\nFormat/Info : Audio Video Interleave\r\n\r\nFile size : 846 MiB\r\n\r\nDuration : 1h 24mn\r\n\r\nOverall bit rate : 1 395 Kbps\r\n\r\nWriting application : VirtualDubMod 1.5.10.2 (build 2540/release)\r\n\r\nWriting library : VirtualDubMod build 2540/release\r\n\r\n\r\n\r\nVideo\r\n\r\nID : 0\r\n\r\nFormat : MPEG-4 Visual\r\n\r\nFormat profile : Advanced Simple@L4\r\n\r\nFormat settings, BVOP : Yes\r\n\r\nFormat settings, QPel : No\r\n\r\nFormat settings, GMC : No warppoints\r\n\r\nFormat settings, Matrix : Default (H.263)\r\n\r\nCodec ID : XVID\r\n\r\nCodec ID/Hint : XviD\r\n\r\nDuration : 1h 24mn\r\n\r\nBit rate : 1 002 Kbps\r\n\r\nWidth : 700 pixels\r\n\r\nHeight : 394 pixels\r\n\r\nDisplay aspect ratio : 16:9\r\n\r\nFrame rate : 23.976 fps\r\n\r\nResolution : 8 bits\r\n\r\nColorimetry : 4:2:0\r\n\r\nScan type : Progressive\r\n\r\nBits/(Pixel*Frame) : 0.152\r\n\r\nStream size : 607 MiB (72%)\r\n\r\nWriting library : XviD 1.2.1 (UTC 2008-12-04)\r\n\r\n\r\n\r\nAudio\r\n\r\nID : 1\r\n\r\nFormat : AC-3\r\n\r\nFormat/Info : Audio Coding 3\r\n\r\nCodec ID : 2000\r\n\r\nDuration : 1h 24mn\r\n\r\nBit rate mode : Constant\r\n\r\nBit rate : 384 Kbps\r\n\r\nChannel(s) : 6 channels\r\n\r\nChannel positions : Front: L C R, Surround: L R, LFE\r\n\r\nSampling rate : 48.0 KHz\r\n\r\nStream size : 233 MiB (28%)\r\n\r\nAlignment : Split accross interleaves\r\n\r\nInterleave, duration : 42 ms (1.00 video frame)\r\n\r\nInterleave, preload duration : 500 ms\r\n\r\n\r\n\r\n\r\n  \r\n  \r\n  \r\n\r\n\r\n**** IF YOU LIKE THIS TORRENT, PLEASE HELP DREAM TORRENTS CONTINUE THIS GREAT WORK BY GIVING A SMALL DONATION TO HELP WITH THE SERVER COSTS ( DONATE HERE) ****\r\n\r\n>>>This Torrent Has Been Edited By thewac <<
Freddy Frogface Dvdrip Xvid AC3 TVAL.avi 886.983 MB
Gathering some info...

Register and log in Isohunt and see no captcha anymore!

4000 symbols left
Hash 3593F221800EC4AAD14D855D0EB669CBC13BDB21

Related torrents for "Freddy Frogface Dvdrip Xvid AC3 TVAL avi"

Torrent search:

dvdrip