China Heavyweight 2012 R5 XviD-WDR

Size 727.832 MB   0 seeders     Added 2012-07-06 02:51:45

Stream torrent
Starting‥ You need BitLord! Get it from 1BitLord.com
To download or stream you need BitLord. Visit them at BitLord.com
China Heavyweight 2012 R5.XviD-WDR\r\n\r\n\r\n\r\nFormat                           : AVI\r\nFormat/Info                      : Audio Video Interleave\r\nFile size                        : 697 MiB\r\nDuration                         : 1h 34mn\r\nOverall bit rate                 : 991 Kbps\r\nWriting application              : VirtualDubMod 1.5.10.2 (build 2540/release)\r\nWriting library                  : Boilsoft AVI tool build 1/release\r\n\r\nVideo\r\nID                               : 0\r\nFormat                           : MPEG-4 Visual\r\nFormat profile                   : Advanced Simple@L5\r\nFormat settings, BVOP            : Yes\r\nFormat settings, QPel            : No\r\nFormat settings, GMC             : No warppoints\r\nFormat settings, Matrix          : Custom\r\nCodec ID                         : XVID\r\nCodec ID/Hint                    : XviD\r\nDuration                         : 1h 46mn\r\nBit rate                         : 787 Kbps\r\nWidth                            : 624 pixels\r\nHeight                           : 256 pixels\r\nDisplay aspect ratio             : 2.40:1\r\nFrame rate                       : 25.000 fps\r\nColor space                      : YUV\r\nChroma subsampling               : 4:2:0\r\nBit depth                        : 8 bits\r\nScan type                        : Progressive\r\nBits/(Pixel*Frame)               : 0.197\r\nStream size                      : 597 MiB (79%)\r\nWriting library                  : XviD 1.2.1 (UTC 2008-12-04)\r\n\r\nAudio\r\nID                               : 1\r\nFormat                           : MPEG Audio\r\nFormat version                   : Version 1\r\nFormat profile                   : Layer 3\r\nMode                             : Joint stereo\r\nMode extension                   : MS Stereo\r\nCodec ID                         : 55\r\nCodec ID/Hint                    : MP3\r\nDuration                         : 1h 45mn\r\nBit rate mode                    : Constant\r\nBit rate                         : 32.0 Kbps\r\nChannel(s)                       : 2 channels\r\nSampling rate                    : 48.0 KHz\r\nStream size                      : 145 MiB (19%)\r\nAlignment                        : Aligned on interleaves\r\nInterleave, duration             : 24 ms (0.60 video frame)\r\nInterleave, preload duration     : 84 ms\r\nWriting library                  : LAME3.98.4
China Heavyweight 2012 R5.XviD-WDR/China Heavyweight 2012 R5.XviD-WDR.rar 727.831 MB
China Heavyweight 2012 R5.XviD-WDR/read.txt 656 B
China Heavyweight 2012 R5.XviD-WDR/China Heavyweight 2012 R5.XviD-WDR.nfo 211 B
Gathering some info...

Register and log in Isohunt and see no captcha anymore!

4000 symbols left
Hash 1B9A3FDF12166B996911AA89D6EBA591E0034338