imdb
rating

5.0
The Babymakers

The Babymakers (2012)

Comedy

Full description
quality   dvd dvdrip cam telesync hd bd dvdr

The Babymakers 2012 DVDRiP XviD-TASTE

Size 736.128 MB   0 seeders     Added 2012-07-06 02:52:53

Stream torrent
Starting‥ You need BitLord! Get it from 1BitLord.com
To download or stream you need BitLord. Visit them at BitLord.com
The.Babymakers.2012.DVDRiP.XviD-TASTE\r\n\r\nFormat : AVI\r\nFormat/Info : Audio Video Interleave\r\nFormat profile : OpenDML\r\nFile size : 699 MiB\r\nDuration : 2h 23mn\r\nOverall bit rate : 1 052 Kbps\r\nWriting application : VirtualDubMod 1.5.10.2 (build 2542/release)\r\nWriting library : VirtualDubMod build 2542/release\r\nVideo\r\nID : 0\r\nFormat : MPEG-4 Visual\r\nFormat profile : AdvancedSimple@L5\r\nFormat settings, BVOP : Yes\r\nFormat settings, QPel : No\r\nFormat settings, GMC : No warppoints\r\nFormat settings, Matrix : Default (MPEG)\r\nCodec ID : XVID\r\nCodec ID/Hint : XviD\r\nDuration : 2h 23mn\r\nBit rate : 942 Kbps\r\nWidth : 640 pixels\r\nHeight : 272 pixels\r\nDisplay aspect ratio : 2.35:1\r\nFrame rate : 23.976 fps\r\nResolution : 24 bits\r\nColorimetry : 4:2:0\r\nScan type : Progressive\r\nBits/(Pixel*Frame) : 0.271\r\nStream size : 669 MiB (78%)\r\nWriting library : XviD 1.2.1 (UTC 2008-12-04)\r\nAudio\r\nID : 1\r\nFormat : AC-3\r\nFormat/Info : Audio Coding 3\r\nCodec ID : 2000\r\nDuration : 2h 23mn\r\nBit rate mode : Constant\r\nBit rate : 128 Kbps\r\nChannel(s) : 2 channels\r\nChannel positions : Front: L  R\r\nSampling rate : 48.0 KHz\r\nStream size : 30 MiB (22%)\r\nAlignment : Aligned on interleaves\r\nInterleave, duration : 64 ms (1.53 video frames)\r\nInterleave, preload duration : 192 ms\r\nSource: DVD (perfect a/v/sync quality,sample included)\r\n\r\nThis torrent is not seedbox supported,please seed it.
cover.jpg 9.12 KB
Screenshot01.png 7.573 KB
Screenshot02.png 9.023 KB
Gathering some info...

Register and log in Isohunt and see no captcha anymore!

4000 symbols left
Hash F0BFBD0144E5803F666554AA47B9046DAC331857

Related torrents for "The Babymakers 2012 DVDRiP XviD-TASTE"

Torrent search:

dvdrip 2012