Oasis.Dig.Out.Your.Soul_FLAC

Size 328.254 MB   0 seeders     Added 2012-07-08 01:54:57

Stream torrent
Starting‥ You need BitLord! Get it from BitLord.com
To download or stream you need BitLord. Visit them at BitLord.com
[align=center][b][SIZE=12][color=red]OASIS - DIG OUT YOUR SOUL[/SIZE][/b][/color]

[IMG]image[/IMG]

[b][color=red].: Dati Album :.[/color][/b]
[b]Titolo: Dig out your soul [/b]
[b]Anno: 2008 [/b]                                    
[b]Genere: Rock - Alternative Rock - Britpop [/b]
[b]Etichetta: Big Brother -  Sony [/b]
[b]Source: Original CD [/b]

[b][color=red].: Tracklist :.[/color][/b]
    1 - Bag It Up - 4:40 - (Noel Gallagher)
    2 - The Turning - 5:04 - (Noel Gallagher)
    3 - Waiting for the Rapture - 3:03 - (Noel Gallagher) Voce principale: Noel Gallagher
    4 - The Shock of the Lightning - 4:59 - (Liam Gallagher)
    5 - I'm Outta Time - 4:10 - (Liam Gallagher)
    6 - (Get Off Your) High Horse Lady - 4:07 - (Noel Gallagher) Voce principale: Noel Gallagher
    7 - Falling Down - 4:18 - (Noel Gallagher) Voce principale: Noel Gallagher
    8 - To Be Where There's Life - 4:35 - (Liam Gallagher)
    9 - Ain't Got Nothin - 2:14 - (Liam Gallagher)
    10 - The Nature of Reality - 3:48 - (Liam Gallagher)
    11 - Soldier On - 4:50 - (Liam Gallagher)


[b][color=red].: Recensione :.[/color][/b]

[b]By Chris Jones - BBC[/b] [[URL=http://www.bbc.co.uk/music/reviews/b8mq]*[/URL]]

Legend has it that if Noel Coward was back stage after a production that was less than glowing, he'd merely say, "Darling, you've done it again!". Thus, unless you truly believe that Oasis are still the saviours of the dead horse we call 'rock 'n' roll' it's pointless to gripe about Dig Out Your Soul. It's a return to form for them and followers who have had their patience tested, waiting for a return to the big swaggering days of yore, will be well-pleased. Yes chaps, you've done it again.As you'd expect the album's packed with the Sex-Pistols-play-the White-Album material we love 'em for. The Fab-Four-alike game continues with (Get Off Your) High Horse Lady as Give Peace A Chance; the intro to Dear Prudence making up the coda to The Turning; and apparently love is a ''magical mystery'' in The Shock Of The Lightning.Liam's songs now give him the opportunity to do the 'sensitive' thing that his brother usually reserves for himself. Both I'm Outta Time and closer, Soldier On may be ostensibly Lennon homages, but they're the equal of anything else here. And top double negative expressing Ain't Got Nothin' throws you a curveball with its leery waltz timing. The newly-expanded band democracy also gives room to Andy Bell's The Nature Of Reality: a monstrous boogie, and Gem Archer's drone/raga-style To Be Where There's Life. It still seems odd that the Mancunians choose cod-psychedelia as their modus operandi. Considering Noel's truculent inability to say anything nice about anyone else who dares to make a record, you get the feeling that if you took Oasis back to 1967 they'd be having a ruck with Syd Barrett and telling Paul McCartney to get ''fookin' real''. Nevertheless, Dig Out Your Soul comes equipped with all kinds of flowery sonic jiggery pokery: bells and even sitars join the footsteps on beaches, police sirens, bleeping games machines etc. But this cartoonish contradiction means that if the band ever really resemble any 60s heroes it's probably the Troggs. Street kids dressed in paisley...
Dig Out Your Soul has a huge sound. As reported by the siblings, it is ''rockin'''. Zak Starkey's drums pound in fine neanderthal style; the guitars crunch and feed back; the barre chords pummel; and Liam's voice still does that sneer that conveys that whatever we may think, he's not remotely bothered. 


[b]By Jody Rosen - Rolling Stone[/b] [[URL=http://www.rollingstone.com/music/albumreviews/dig-out-your-soul-20081016]*[/URL]]

From the beginning, Oasis' greatest strength and most glaring weakness has been shamelessness — the belief that no classic-rock riff is too timeworn, no Beatles allusion too banal to merit blasting out at top volume. At its best, this brutish approach has produced some transcendent music ("Live Forever," "Wonderwall"), but as years have passed and gray hair has sprouted in the Gallagher brothers' moptops, the self-parody has often seemed less charming than wearying. Oasis' latest is heavier on groove than normal, and there are a couple of gripping moments, especially Liam's stately, Lennonesque ballad "I'm Outta Time." But for the most part, Dig Out Your Soul is an almost comically generic Oasis release, from its preponderance of plodding midtempo rockers ("Bag It Up," "Waiting for the Rapture") to the vaguely Indian raga-flavored psychedelic anthems ("To Be Where There's Life"). Then there's the issue of Liam's "philosophizing" — he's entered the Maharishi phase of his Beatles worship, clogging songs with beatitudes like "Space and time and here and now/Are only in your mind." Got that?


[b][color=red].: Dati Tecnici :.[/color][/b]

[CODE]Oasis / Dig Out Your Soul

Used drive  : TSSTcorpDVDWBD TS-LB23A   Adapter: 0  ID: 1

Read mode               : Secure
Utilize accurate stream : Yes
Defeat audio cache      : Yes
Make use of C2 pointers : No

Read offset correction                      : 6
Overread into Lead-In and Lead-Out          : No
Fill up missing offset samples with silence : Yes
Delete leading and trailing silent blocks   : Yes
Null samples used in CRC calculations       : Yes
Used interface                              : Native Win32 interface for Win NT & 2000
Gap handling                                : Appended to previous track

Used output format              : User Defined Encoder
Selected bitrate                : 768 kBit/s
Quality                         : High
Add ID3 tag                     : No
Command line compressor         : C:\Program Files (x86)\Exact Audio Copy\FLAC\FLAC.EXE
Additional command line options : -6 -V -T "ARTIST=%artist%" -T "TITLE=%title%" -T "ALBUM=%albumtitle%" -T "DATE=%year%" -T "TRACKNUMBER=%tracknr%" -T "GENRE=%genre%" -T "COMMENT=%comment%" -T "BAND=%albuminterpret%" -T "ALBUMARTIST=%albuminterpret%" -T "COMPOSER=%composer%" %haslyrics%--tag-from-file=LYRICS="%lyricsfile%"%haslyrics% -T "DISCNUMBER=%cdnumber%" -T "TOTALDISCS=%totalcds%" -T "TOTALTRACKS=%numtracks%" %hascover%--picture="%coverfile%"%hascover% %source% -o %dest%


TOC of the extracted CD

     Track |   Start  |  Length  | Start sector | End sector 
    ---------------------------------------------------------
        1  |  0:00.00 |  4:40.31 |         0    |    21030   
        2  |  4:40.31 |  5:04.63 |     21031    |    43893   
        3  |  9:45.19 |  3:02.74 |     43894    |    57617   
        4  | 12:48.18 |  4:59.71 |     57618    |    80113   
        5  | 17:48.14 |  4:10.01 |     80114    |    98864   
        6  | 21:58.15 |  4:06.59 |     98865    |   117373   
        7  | 26:04.74 |  4:20.06 |    117374    |   136879   
        8  | 30:25.05 |  4:35.56 |    136880    |   157560   
        9  | 35:00.61 |  2:14.61 |    157561    |   167671   
       10  | 37:15.47 |  3:47.65 |    167672    |   184761   
       11  | 41:03.37 |  4:50.56 |    184762    |   206567   


Track  1

     Filename C:\Users\Leonardo\Music\Dig Out Your Soul - Oasis\01 - Bag It Up .wav

     Pre-gap length  0:00:02.00

     Peak level 100.0 %
     Extraction speed 1.0 X
     Track quality 100.0 %
     Test CRC 8F722B42
     Copy CRC 8F722B42
     Copy OK

Track  2

     Filename C:\Users\Leonardo\Music\Dig Out Your Soul - Oasis\02 - The Turning .wav

     Peak level 100.0 %
     Extraction speed 1.2 X
     Track quality 100.0 %
     Test CRC 60FD58DE
     Copy CRC 60FD58DE
     Copy OK

Track  3

     Filename C:\Users\Leonardo\Music\Dig Out Your Soul - Oasis\03 - Waiting for the Rapture .wav

     Peak level 98.8 %
     Extraction speed 1.1 X
     Track quality 100.0 %
     Test CRC 63B9B6A6
     Copy CRC 63B9B6A6
     Copy OK

Track  4

     Filename C:\Users\Leonardo\Music\Dig Out Your Soul - Oasis\04 - The Shock of the Lightning .wav

     Peak level 98.8 %
     Extraction speed 0.9 X
     Track quality 100.0 %
     Test CRC DDF5CCC5
     Copy CRC DDF5CCC5
     Copy OK

Track  5

     Filename C:\Users\Leonardo\Music\Dig Out Your Soul - Oasis\05 - I'm Outta Time .wav

     Peak level 98.8 %
     Extraction speed 0.9 X
     Track quality 99.9 %
     Test CRC 065D6B50
     Copy CRC 065D6B50
     Copy OK

Track  6

     Filename C:\Users\Leonardo\Music\Dig Out Your Soul - Oasis\06 - (Get Off Your) High Horse Lady .wav

     Peak level 98.8 %
     Extraction speed 1.1 X
     Track quality 100.0 %
     Test CRC 9FC1B6F8
     Copy CRC 9FC1B6F8
     Copy OK

Track  7

     Filename C:\Users\Leonardo\Music\Dig Out Your Soul - Oasis\07 - Falling Down .wav

     Peak level 98.9 %
     Extraction speed 1.0 X
     Track quality 100.0 %
     Test CRC 20FF568B
     Copy CRC 20FF568B
     Copy OK

Track  8

     Filename C:\Users\Leonardo\Music\Dig Out Your Soul - Oasis\08 - To Be Where There's Life .wav

     Peak level 98.8 %
     Extraction speed 1.9 X
     Track quality 100.0 %
     Test CRC 97FE820A
     Copy CRC 97FE820A
     Copy OK

Track  9

     Filename C:\Users\Leonardo\Music\Dig Out Your Soul - Oasis\09 - Ain't Got Nothin' .wav

     Peak level 98.8 %
     Extraction speed 1.4 X
     Track quality 100.0 %
     Test CRC 0BC5E325
     Copy CRC 0BC5E325
     Copy OK

Track 10

     Filename C:\Users\Leonardo\Music\Dig Out Your Soul - Oasis\10 - The Nature of Reality .wav

     Peak level 98.8 %
     Extraction speed 2.0 X
     Track quality 100.0 %
     Test CRC BDEE32FD
     Copy CRC BDEE32FD
     Copy OK

Track 11

     Filename C:\Users\Leonardo\Music\Dig Out Your Soul - Oasis\11 - Soldier On .wav

     Peak level 98.8 %
     Extraction speed 2.2 X
     Track quality 100.0 %
     Test CRC 504AD8BB
     Copy CRC 504AD8BB
     Copy OK

No errors occurred

End of status report
[/CODE]

[color=green].: Ringraziamenti :.[/color]

[/align]
01 - Bag It Up .flac 35.566 MB
02 - The Turning .flac 36.728 MB
03 - Waiting for the Rapture .flac 20.777 MB
Gathering some info...

Register and log in Isohunt and see no captcha anymore!

4000 symbols left
Hash B8597B7D47DE066C767CA1878BC304E8172BCF58

Related torrents for "Oasis.Dig.Out.Your.Soul_FLAC"