Why Stop Now 2012 HDRIP XVID AC3 - Whoopie

Size 714.584 MB   0 seeders     Added 2012-07-08 21:03:03

To download or stream you need BitLord. Visit them at BitLord.com
image

Format                                   : AVI
Format/Info                              : Audio Video Interleave
File size                                : 687 MiB
Duration                                 : 1h 27mn
Overall bit rate                         : 1 094 Kbps
Writing application                      : Lavf54.3.100

Video
ID                                       : 0
Format                                   : MPEG-4 Visual
Format profile                           : Simple@L3
Format settings, BVOP                    : No
Format settings, QPel                    : No
Format settings, GMC                     : No warppoints
Format settings, Matrix                  : Default (H.263)
Codec ID                                 : XVID
Codec ID/Hint                            : XviD
Duration                                 : 1h 27mn
Bit rate                                 : 955 Kbps
Width                                    : 640 pixels
Height                                   : 264 pixels
Display aspect ratio                     : 2.40:1
Frame rate                               : 23.976 fps
Color space                              : YUV
Chroma subsampling                       : 4:2:0
Bit depth                                : 8 bits
Scan type                                : Progressive
Compression mode                         : Lossy
Bits/(Pixel*Frame)                       : 0.236
Stream size                              : 600 MiB (87%)
Writing library                          : XviD 64

Audio
ID                                       : 1
Format                                   : AC-3
Format/Info                              : Audio Coding 3
Mode extension                           : CM (complete main)
Format settings, Endianness              : Big
Codec ID                                 : 2000
Duration                                 : 1h 27mn
Bit rate mode                            : Constant
Bit rate                                 : 128 Kbps
Channel(s)                               : 2 channels
Channel positions                        : Front: L R
Sampling rate                            : 48.0 KHz
Bit depth                                : 16 bits
Compression mode                         : Lossy
Stream size                              : 80.4 MiB (12%)
Alignment                                : Aligned on interleaves
Interleave, duration                     : 32 ms (0.77 video frame)
Why Stop Now 2012 HDRIP XVID AC3 - Whoopie/nfo.txt 2.487 KB
Why Stop Now 2012 HDRIP XVID AC3 - Whoopie/Why Stop Now 2012 HDRIP XVID AC3 . Whoopie.rar 714.582 MB
Gathering some info...

Register and log in Isohunt and see no captcha anymore!

4000 symbols left
Hash f39f7cd1f10224d90d5ceb7694a4df6dd01b4e21