imdb
rating

6.7
American Reunion

American Reunion (2012)

Comedy

Full description

American Reunion (2012) FRENCH DVDRip XviD - GRT

Size 733.93 MB   0 seeders     Added 2012-07-09 02:46:13

Stream torrent
Starting‥ You need BitLord! Get it from BitLord.com
To download or stream you need BitLord. Visit them at BitLord.com
American Reunion (2012) FRENCH DVDRip XviD - GRT\r\nFormat : MPEG-4 Visual\r\nFormat profile : AdvancedSimple@L5\r\nFormat settings, BVOP : Yes\r\nFormat settings, QPel : No\r\nFormat settings, GMC : No warppoints\r\nFormat settings, Matrix : Default (MPEG)\r\nCodec ID : XVID\r\nCodec ID/Hint : XviD\r\nDuration : 1h 53mn\r\nBit rate : 942 Kbps\r\nWidth : 640 pixels\r\nHeight : 272 pixels\r\nDisplay aspect ratio : 2.35:1\r\nFrame rate : 23.976 fps\r\nResolution : 24 bits\r\nColorimetry : 4:2:0\r\nScan type : Progressive\r\nBits/(Pixel*Frame) : 0.271\r\nStream size : 669 MiB (78%)\r\nWriting library : XviD 1.2.1 (UTC 2008-12-04)\r\nAudio\r\nID : 1\r\nFormat : AC-3\r\nFormat/Info : Audio Coding 3\r\nCodec ID : 2000\r\nDuration : 1h 53mn\r\nBit rate mode : Constant\r\nBit rate : 128 Kbps\r\nChannel(s) : 2 channels\r\nChannel positions : Front: L  R\r\nSampling rate : 48.0 KHz\r\nStream size : 30 MiB (22%)\r\nAlignment : Aligned on interleaves\r\nInterleave, duration : 64 ms (1.53 video frames)\r\nInterleave, preload duration : 192 ms\r\nSource: DVD (perfect a/v/sync quality,sample included)
American Reunion (2012) FRENCH DVDRip XviD - GRT.nfo 1.037 KB
American Reunion (2012) FRENCH DVDRip XviD - GRT/American Reunion (2012) FRENCH DVDRip XviD - GRT.rar 732.955 MB
screenshot1.png 316.189 KB
Gathering some info...

Register and log in Isohunt and see no captcha anymore!

4000 symbols left
Hash DEB4BAAB6FBDFB062F6BA05EA60D34281C591E13

Related torrents for "American Reunion (2012) FRENCH DVDRip XviD - GRT"

Torrent search:

dvdrip french 2012