Prometheus (2012) FRANCH DVDRip XviD - MAX

Size 733.234 MB   0 seeders     Added 2012-07-09 20:29:09

To download or stream you need BitLord. Visit them at BitLord.com
Prometheus (2012) FRANCH DVDRip XviD - MAX
Format : AVI
Format/Info : Audio Video Interleave
Format profile : OpenDML
File size : 699 MiB
Duration : 2h 28mn
Overall bit rate : 1 052 Kbps
Writing application : VirtualDubMod 1.5.10.2 (build 2542/release)
Writing library : VirtualDubMod build 2542/release
Video
ID : 0
Format : MPEG-4 Visual
Format profile : AdvancedSimple@L5
Format settings, BVOP : Yes
Format settings, QPel : No
Format settings, GMC : No warppoints
Format settings, Matrix : Default (MPEG)
Codec ID : XVID
Codec ID/Hint : XviD
Duration : 2h 28mn
Bit rate : 942 Kbps
Width : 640 pixels
Height : 272 pixels
Display aspect ratio : 2.35:1
Frame rate : 23.976 fps
Resolution : 24 bits
Colorimetry : 4:2:0
Scan type : Progressive
Bits/(Pixel*Frame) : 0.271
Stream size : 669 MiB (78%)
Writing library : XviD 1.2.1 (UTC 2008-12-04)
Audio
ID : 1
Format : AC-3
Format/Info : Audio Coding 3
Codec ID : 2000
Duration : 2h 28mn
Bit rate mode : Constant
Bit rate : 128 Kbps
Channel(s) : 2 channels
Channel positions : Front: L  R
Sampling rate : 48.0 KHz
Stream size : 30 MiB (22%)
Alignment : Aligned on interleaves
Interleave, duration : 64 ms (1.53 video frames)
Interleave, preload duration : 192 ms
Source: DVD (perfect a/v/sync quality,sample included)


This torrent is not seedbox supported,please seed it.........
Prometheus (2012) FRANCH DVDRip XviD - MAX/cover.jpg 266.345 KB
Prometheus (2012) FRANCH DVDRip XviD - MAX/NFO.nfo 1.382 KB
Prometheus (2012) FRANCH DVDRip XviD - MAX/Prometheus (2012) FRANCH DVDRip XviD - MAX/Prometheus (2012) FRANCH DVDRip XviD - MAX.rar 732.955 MB
Gathering some info...

Register and log in Isohunt and see no captcha anymore!

4000 symbols left
Hash fed8311243ffcb8a05b71baaf2430d727e4aa47c