Jumanji

Jumanji (1996)

Animation General

Full description

Jumanji 1995 720p BrRip x264[TeJaS XpEnDaBlE] a2zRG

Size 577.7 MB   0 seeders     Added 2012-07-10 02:48:45

Stream torrent
Startingā€„ You need BitLord! Get it from 1BitLord.com
To download or stream you need BitLord. Visit them at BitLord.com
[COLOR=#DD0000][SIZE=14][FACE=impact][U][I][B]Jumanji 1995 720p BrRip x264~~~[TeJaS_XpEnDaBlE] {{a2zRG}}[/B]
[/I][/U][/FACE][/SIZE][/COLOR]
[URL=http://nimga.com/v/0213R][IMG]image[/IMG][/URL]

[URL=http://nimga.com/v/Jb9Jd][IMG]image[/IMG][/URL]

[URL=http://nimga.com/v/Gt7MQ][IMG]image[/IMG][/URL]

[url]http://www.imdb.com/title/tt0113497/[/url]


General

Complete name                            : Jumanji 1995 720p BrRip x264~~~[TeJaS_XpEnDaBlE] {{a2zRG}}.mp4
Format                                   : MPEG-4
Format profile                           : Base Media / Version 2
Codec ID                                 : mp42
File size                                : 551 MiB
Duration                                 : 1h 44mn
Overall bit rate mode                    : Variable
Overall bit rate                         : 740 Kbps
Encoded date                             : UTC 2012-07-08 19:03:31
Tagged date                              : UTC 2012-07-08 20:28:55
Writing application                      : HandBrake 0.9.5 2011010300

Video

ID                                       : 1
Format                                   : AVC
Format/Info                              : Advanced Video Codec
Format profile                           : Main@L3.1
Format settings, CABAC                   : Yes
Format settings, ReFrames                : 4 frames
Codec ID                                 : avc1
Codec ID/Info                            : Advanced Video Coding
Duration                                 : 1h 44mn
Bit rate mode                            : Variable
Bit rate                                 : 575 Kbps
Width                                    : 1 280 pixels
Height                                   : 688 pixels
Display aspect ratio                     : 1.860
Frame rate mode                          : Variable
Frame rate                               : 23.976 fps
Minimum frame rate                       : 5.994 fps
Maximum frame rate                       : 23.981 fps
Color space                              : YUV
Chroma subsampling                       : 4:2:0
Bit depth                                : 8 bits
Scan type                                : Progressive
Bits/(Pixel*Frame)                       : 0.027
Stream size                              : 428 MiB (78%)
Writing library                          : x264 core 112

Audio

ID                                       : 2
Format                                   : AAC
Format/Info                              : Advanced Audio Codec
Format profile                           : LC
Codec ID                                 : 40
Duration                                 : 1h 44mn
Bit rate mode                            : Variable
Bit rate                                 : 160 Kbps
Maximum bit rate                         : 272 Kbps
Channel(s)                               : 2 channels
Channel positions                        : Front: L R
Sampling rate                            : 48.0 KHz
Compression mode                         : Lossy
Stream size                              : 119 MiB (22%)




Facebook :-

If You Like My Post Then Please Visit :-

[URL=http://nimga.com/v/j0Clv][IMG]image[/IMG][/URL]


Facebook Page :-  [url]http://www.facebook.com/pages/A2Z-RG/278496908901013[/url]


Facebook Group :-  [url]http://www.facebook.com/groups/403553456329800/[/url]


Screen Shots :-

[URL=http://nimga.com/v/gVH4V][IMG]image[/IMG][/URL]

[URL=http://nimga.com/v/xiscn][IMG]image[/IMG][/URL]

[URL=http://nimga.com/v/daISc][IMG]image[/IMG][/URL]

[URL=http://nimga.com/v/ztTwC][IMG]image[/IMG][/URL]



[URL=http://nimga.com/v/E4T9W][IMG]image[/IMG][/URL]


[URL=http://nimga.com/v/tARlA][IMG]image[/IMG][/URL]
Jumanji.1995.720p.BrRip.x264~~~[TeJaS_XpEnDaBlE] {{a2zRG}}.mp4 577.443 MB
Jumanji.1995~~~[TeJaS_XpEnDaBlE] {{a2zRG}}.jpg 255.724 KB
Torrent Downloaded From ExtraTorrent.com.txt 353 B
Gathering some info...

Register and log in Isohunt and see no captcha anymore!

4000 symbols left
Hash D3B32B1BFABA623AC010E1815C462678A2ADCD7A

Related torrents for "Jumanji 1995 720p BrRip x264[TeJaS XpEnDaBlE] a2zRG"

Torrent search:

1995 x264 hd bd