imdb
rating

6.7
Ice Age: Continental Drift

Ice Age: Continental Drift (2012)

Adventure, Animation, Comedy, Family

Full description
quality   dvdrip x264 hd bd screener dvd

Ice Age Continental Drift 2012 DVDRiP XviD-FICO

Size 736.65 MB   0 seeders     Added 2012-07-10 02:51:51

Stream torrent
Starting‥ You need BitLord! Get it from BitLord.com
To download or stream you need BitLord. Visit them at BitLord.com
Ice.Age.Continental.Drift.2012.DVDRiP.XviD-FICO\r\n\r\nFormat : AVI\r\nFormat/Info : Audio Video Interleave\r\nFormat profile : OpenDML\r\nFile size : 699 MiB\r\nDuration : 1h 34mn\r\nOverall bit rate : 1 052 Kbps\r\nWriting application : VirtualDubMod 1.5.10.2 (build 2542/release)\r\nWriting library : VirtualDubMod build 2542/release\r\nVideo\r\nID : 0\r\nFormat : MPEG-4 Visual\r\nFormat profile : AdvancedSimple@L5\r\nFormat settings, BVOP : Yes\r\nFormat settings, QPel : No\r\nFormat settings, GMC : No warppoints\r\nFormat settings, Matrix : Default (MPEG)\r\nCodec ID : XVID\r\nCodec ID/Hint : XviD\r\nDuration : 1h 34mn\r\nBit rate : 942 Kbps\r\nWidth : 640 pixels\r\nHeight : 272 pixels\r\nDisplay aspect ratio : 2.35:1\r\nFrame rate : 23.976 fps\r\nResolution : 24 bits\r\nColorimetry : 4:2:0\r\nScan type : Progressive\r\nBits/(Pixel*Frame) : 0.271\r\nStream size : 669 MiB (78%)\r\nWriting library : XviD 1.2.1 (UTC 2008-12-04)\r\nAudio\r\nID : 1\r\nFormat : AC-3\r\nFormat/Info : Audio Coding 3\r\nCodec ID : 2000\r\nDuration : 1h 34mn\r\nBit rate mode : Constant\r\nBit rate : 128 Kbps\r\nChannel(s) : 2 channels\r\nChannel positions : Front: L  R\r\nSampling rate : 48.0 KHz\r\nStream size : 30 MiB (22%)\r\nAlignment : Aligned on interleaves\r\nInterleave, duration : 64 ms (1.53 video frames)\r\nInterleave, preload duration : 192 ms\r\nSource: DVD (perfect a/v/sync quality,sample included)\r\n\r\nThis torrent is not seedbox supported,please seed it.
cover.jpg 13.317 KB
Ice.Age.Continental.Drift.2012.DVDRiP.XviD-FICO.nfo 1.373 KB
Ice.Age.Continental.Drift.2012.DVDRiP.XviD-FICO/Ice.Age.Continental.Drift.2012.DVDRiP.XviD-FICO.rar 736.101 MB
Gathering some info...

Register and log in Isohunt and see no captcha anymore!

4000 symbols left
Hash 46D80BFCDD6F69BE7C3C410150439AC3981FEB3D

Related torrents for "Ice Age Continental Drift 2012 DVDRiP XviD-FICO"

Torrent search:

dvdrip 2012