imdb
rating

6.5
Savages

Savages (2012)

Crime, Drama, Thriller

Full description

Savages 2012 DVDRip~AVI

Size 895.79 MB   0 seeders     Added 2012-07-10 15:10:29

Stream torrent
Starting‥ You need BitLord! Get it from BitLord.com
To download or stream you need BitLord. Visit them at BitLord.com
Savages (2012)\r\n\r\n-------------------------------------------------------------------\r\nPlease share....Dont hit and run...Seed it back at least once.\r\n\r\nOf course, if you want to seed it back more than once, that would be ok too :)\r\n-------------------------------------------------------------------    \r\n\r\nQUALITY:  PERFECT 10/10\r\n\r\nAll details are here:\r\n\r\nFormat  | AVI           Language | ENGLISH  \r\nSource  | DVD PAL       Subs     | NONE\r\n\r\nQUALITY:  PERFECT 10/10\r\n\r\n- Video\r\nID                               : 0\r\nFormat                           : MPEG-4 Visual\r\nFormat profile                   : Advanced Simple@L5\r\nFormat settings, BVOP            : Yes\r\nFormat settings, QPel            : No\r\nFormat settings, GMC             : No warppoints\r\nFormat settings, Matrix          : Default (H.263)\r\nMuxing mode                      : Packed bitstream\r\nCodec ID                         : XVID\r\nCodec ID/Hint                    : XviD\r\nBit rate                         : 1 345 Kbps\r\nWidth                            : 720 pixels\r\nHeight                           : 314 pixels\r\nDisplay aspect ratio             : 2.25:1\r\nFrame rate                       : 29.970 fps\r\nColor space                      : YUV\r\nChroma subsampling               : 4:2:0\r\nBit depth                        : 8 bits\r\nScan type                        : Progressive\r\nCompression mode                 : Lossy\r\nBits/(Pixel*Frame)               : 0.198\r\nStream size                      : 1.19 GiB (87%)\r\nWriting library                  : XviD 1.1.0 (UTC 2005-11-22)\r\n\r\n- Audio\r\nID                               : 1\r\nFormat                           : AC-3\r\nFormat/Info                      : Audio Coding 3\r\nMode extension                   : CM (complete main)\r\nCodec ID                         : 2000\r\nBit rate mode                    : Constant\r\nBit rate                         : 192 Kbps\r\nChannel(s)                       : 2 channels\r\nChannel positions                : Front: L R\r\nSampling rate                    : 48.0 KHz\r\nBit depth                        : 16 bits\r\nCompression mode                 : Lossy\r\nStream size                      : 175 MiB (12%)\r\nAlignment                        : Aligned on interleaves\r\nInterleave, duration             : 33 ms (1.00 video frame)\r\nInterleave, preload duration     : 512 ms    \r\n\r\n- Greets\r\n\r\nGreets to | X | Joshua08 | IMAGiNE | PrisM | DiGiTAL iNK |\r\n\r\nTorrent Name :  Savages 2012 DVDRip AVI\r\n\r\n-----------------------------------------------------------------------------------------\r\n\r\nGENRE : Crime | Drama | Thriller\r\n\r\nTHE Plot:-A team of explorers discover a clue to the origins of mankind on Earth, leading them on a journey to the darkest corners of the universe. There, they must fight a terrifying battle to save the future of the human race.\r\nhttp://www.imdb.com/title/tt1615065/\r\n____________________________________________________________________________________________
Savages 2012.DVDRip~AVI/ExtraTorrentRG.mp4 1.515 MB
Savages 2012.DVDRip~AVI/MOVIE.nfo 4.858 KB
Savages 2012.DVDRip~AVI/Sample AVI.avi 2.994 MB
Gathering some info...

Register and log in Isohunt and see no captcha anymore!

4000 symbols left
Hash 0d15d9fb18b5029037f4295cb623c3225a272093

Related torrents for "Savages 2012 DVDRip~AVI"

Torrent search:

dvdrip 2012