All Dark Places (2012) DVDRip XviD SLiCK

Size 854.418 MB   0 seeders     Added 2012-07-10 20:36:05

To download or stream you need BitLord. Visit them at BitLord.com
General Information

Complete name                            : All Dark Places (2012) DVDRip XviD SLiCK.avi
Format                                   : AVI
Format/Info                              : Audio Video Interleave
File size                                : 846 MiB
Duration                                 : 1h 24mn
Overall bit rate                         : 1 393 Kbps

Video
ID                                       : 0
Format                                   : MPEG-4 Visual
Format profile                           : Advanced Simple@L5
Format settings, BVOP                    : 2
Format settings, QPel                    : Yes
Format settings, GMC                     : No warppoints
Format settings, Matrix                  : Default (H.263)
Codec ID                                 : XVID
Codec ID/Hint                            : XviD
Duration                                 : 1h 24mn
Bit rate                                 : 1 000 Kbps
Width                                    : 640 pixels
Height                                   : 352 pixels
Display aspect ratio                     : 16:9
Frame rate                               : 29.970 fps
Color space                              : YUV
Chroma subsampling                       : 4:2:0
Bit depth                                : 8 bits
Scan type                                : Progressive
Compression mode                         : Lossy
Bits/(Pixel*Frame)                       : 0.148
Stream size                              : 608 MiB (72%)
Writing library                          : XviD 1.2.1 (UTC 2008-12-04)

Audio
ID                                       : 1
Format                                   : AC-3
Format/Info                              : Audio Coding 3
Mode extension                           : CM (complete main)
Format settings, Endianness              : Big
Codec ID                                 : 2000
Duration                                 : 1h 24mn
Bit rate mode                            : Constant
Bit rate                                 : 384 Kbps
Channel(s)                               : 6 channels
Channel positions                        : Front: L C R, Side: L R, LFE
Sampling rate                            : 48.0 KHz
Bit depth                                : 16 bits
Compression mode                         : Lossy
Stream size                              : 233 MiB (28%)
Alignment                                : Aligned on interleaves
Interleave, duration                     : 64 ms (1.92 video frames)
Interleave, preload duration             : 192 ms
Title                                    : All Dark Places (2012) SLiCK

Plot
85 min  -  Horror | Thriller

Jamie and Christian are giving their marriage one last shot for the sake of love and their young son, Dylan. But when Christian proves unable to hold up his end, forces both within and outside their relationship will decide their future.
All Dark Places (2012) DVDRip XviD SLiCK/All Dark Places (2012) DVDRip XviD.SLiCK.rar 854.411 MB
All Dark Places (2012) DVDRip XviD SLiCK/All Dark Places (2012).nfo 6.329 KB
Gathering some info...

Register and log in Isohunt and see no captcha anymore!

4000 symbols left
Hash bd541ac69eaf56c415f1cfc2c39a4dee8f2c9062