Bob Marley Live in Concert 2012 480p BRRip XviD AC3 Voltage

Size 1.214 GB   0 seeders     Added 2012-07-11 02:35:39

Stream torrent
Starting‥ You need BitLord! Get it from BitLord.com
To download or stream you need BitLord. Visit them at BitLord.com
Looking for fast download speeds come join http://dream-torrents.com for all the latest releases, with friendly staff online radio and games and much much more.\r\n-\r\n-\r\n.\r\nSource........::: Bob.Marley.Live.in.Concert.2012.720p.MBluRay.x264\r\nEncoder.......::: Dreamer\r\nGeneral\r\nComplete name : Bob.Marley.Live.in.Concert.2012.480p.BRRip.XviD.AC3-Voltage.avi\r\nFormat : AVI\r\nFormat/Info : Audio Video Interleave\r\nFile size : 1.10 GiB\r\nDuration : 1h 8mn\r\nOverall bit rate : 2 308 Kbps\r\nVideo\r\nID : 0\r\nFormat : MPEG-4 Visual\r\nFormat profile : Advanced Simple@L5\r\nFormat settings, BVOP : 2\r\nFormat settings, QPel : No\r\nFormat settings, GMC : No warppoints\r\nFormat settings, Matrix : Default (H.263)\r\nCodec ID : XVID\r\nCodec ID/Hint : XviD\r\nDuration : 1h 8mn\r\nBit rate : 1 850 Kbps\r\nWidth : 720 pixels\r\nHeight : 592 pixels\r\nDisplay aspect ratio : 1.216\r\nFrame rate : 25.000 fps\r\nColor space : YUV\r\nChroma subsampling : 4:2:0\r\nBit depth : 8 bits\r\nScan type : Progressive\r\nCompression mode : Lossy\r\nBits/(Pixel*Frame) : 0.174\r\nStream size : 903 MiB (80%)\r\nWriting library : XviD 1.2.1 (UTC 2008-12-04)\r\nAudio\r\nID : 1\r\nFormat : AC-3\r\nFormat/Info : Audio Coding 3\r\nMode extension : CM (complete main)\r\nFormat settings, Endianness : Big\r\nCodec ID : 2000\r\nDuration : 1h 8mn\r\nBit rate mode : Constant\r\nBit rate : 448 Kbps\r\nChannel(s) : 6 channels\r\nChannel positions : Front: L C R, Side: L R, LFE\r\nSampling rate : 48.0 KHz\r\nBit depth : 16 bits\r\nCompression mode : Lossy\r\nStream size : 219 MiB (19%)\r\nAlignment : Split accross interleaves\r\nInterleave, duration : 40 ms (1.00 video frame)\r\nInterleave, preload duration : 500 ms\r\nAudio.............:: English\r\nSubtitles........:: None\r\n\r\n\r\n01. Trenchtown Rock\r\n02. Them Belly Full\r\n03. I Shot The Sheriff\r\n04. Rebel Music\r\n05. Lively Up Yourself\r\n06. Crazy Baldhead/ Running Away\r\n07. War/No More Trouble\r\n08. The Heathen\r\n09. No Woman, No Cry\r\n10. Jamming\r\n11. Get Up, Stand Up!\r\n12. Exodus
Bob.Marley.Live.in.Concert.2012.480p.BRRip.XviD.AC3-Voltage.avi 1.181 GB
Bob.Marley.Live.in.Concert.2012.480p.BRRip.XviD.AC3-Voltage.nfo 10.998 KB
Bob.Marley.Live.in.Concert.2012.480p.BRRip.XviD.AC3-Voltage.sample.avi 33.261 MB
Gathering some info...

Register and log in Isohunt and see no captcha anymore!

4000 symbols left
Hash 7AD7CF815B638895872E9B2F0078F192BE88441F