One World

One World (1998)

Comedy, Teens

Full description

Frozen World

Size 9.558 GB   0 seeders     Added 2012-07-11 02:49:04

Stream torrent
Starting‥ You need BitLord! Get it from BitLord.com
To download or stream you need BitLord. Visit them at BitLord.com
[img] image[/img]\r\n\r\nDocumentary\r\nWith:\r\nKiller Whale Islands and Arctic Exposure\r\n\r\nPenguin Safari,\r\nLiving amongst the colony of 200,000 King penguins near the Antarctic ice-cap and during 40 days of live-action filming, Nigel explores the real-life drama and experiences the day-to-day soap opera of their lives. He also witnesses extraordinary sights from the other main inhabitants of this area - the 6,000 Southern Elephant seals. This week-long series was filmed over forty days during October and November, the Antarctic spring, amongst the spectacular wildlife and jaw-dropping scenery of the island of South Georgia. I became friendly with the penguin stars and a supporting cast of other animal characters, as they spent the short spring courting, breeding, laying eggs, bickering and eventually feeding their newborn babies! \r\n\r\nhttp://www.imdb.com/title/tt1043674\r\n\r\n[COLOR=#3300FF]------------------------ Dutch Friends ------------------------\r\n---------------------------------------------------------------\r\n- Bezoek ook eens mijn vrienden op:  http://www.Film-Test.nl --\r\n----- voor mijn Nederlandse Sync. ondertitels ---- en meer ----\r\n------- http://www.Film-Test.nl ---- voor Films en meer -------\r\n---------------------------------------------------------------[/COLOR]\r\n\r\nGeneral:\r\n\r\nComplete name                    : Frozen World\\Penguin Safari\\Part01.avi\r\nFormat                           : AVI\r\nFormat/Info                      : Audio Video Interleave\r\nFile size                        : 2.15 GiB\r\nDuration                         : 2h 14mn\r\nOverall bit rate                 : 2 286 Kbps\r\n\r\nVideo:\r\n\r\nFormat                           : MPEG-4 Visual\r\nFormat profile                   : Simple@L3\r\nFormat settings, BVOP            : No\r\nFormat settings, QPel            : No\r\nFormat settings, GMC             : No warppoints\r\nFormat settings, Matrix          : Default (H.263)\r\nCodec ID                         : XVID\r\nCodec ID/Hint                    : XviD\r\nDuration                         : 2h 14mn\r\nBit rate                         : 1 827 Kbps\r\nWidth                            : 704 pixels\r\nHeight                           : 396 pixels\r\nDisplay aspect ratio             : 16:9\r\nFrame rate                       : 25.000 fps\r\nColor space                      : YUV\r\nChroma subsampling               : 4:2:0\r\nBit depth                        : 8 bits\r\nScan type                        : Progressive\r\nCompression mode                 : Lossy\r\nBits/(Pixel*Frame)               : 0.262\r\nStream size                      : 1.72 GiB (80%)\r\nWriting library                  : XviD 1.1.2 (UTC 2006-11-01)\r\n\r\nAudio:\r\n\r\nFormat                           : AC-3\r\nFormat/Info                      : Audio Coding 3\r\nMode extension                   : CM (complete main)\r\nCodec ID                         : 2000\r\nDuration                         : 2h 14mn\r\nBit rate mode                    : Constant\r\nBit rate                         : 448 Kbps\r\nChannel(s)                       : 6 channels\r\nChannel positions                : Front: L C R, Side: L R, LFE\r\nSampling rate                    : 48.0 KHz\r\nBit depth                        : 16 bits\r\nCompression mode                 : Lossy\r\nStream size                      : 432 MiB (20%)\r\nAlignment                        : Aligned on interleaves\r\nInterleave, duration             : 32 ms (0.80 video frame)
Arctic Exposure/Part03.avi 2.208 GB
Arctic Exposure/Part04.avi 2.204 GB
Cover/Frozen World.jpg 11.239 KB
Gathering some info...

Register and log in Isohunt and see no captcha anymore!

4000 symbols left
Hash 72098FD20E91817B0E1FD627BDFDFCC232DD06C4

Related torrents for "Frozen World"