imdb
rating

6.1
Snow White and the Huntsman

Snow White and the Huntsman (2012)

Adventure, Drama, Fantasy

Full description
quality   screener dvd hd dvdrip cam bd

Snow White and the Huntsman [2012]BRRip XviD~ETRG

Size 890.547 MB   0 seeders     Added 2012-07-11 06:15:46

Stream torrent
Starting‥ You need BitLord! Get it from 1BitLord.com
To download or stream you need BitLord. Visit them at BitLord.com
Snow White and the Huntsman [2012]BRRip XviD~ETRG\r\n\r\n\r\n\r\n\r\n\r\nIn a twist to the fairy tale, the Huntsman ordered to take Snow White into the woods to be killed winds up becoming her protector and mentor in a quest to vanquish the Evil Queen. \r\n\r\n\r\nComplete name : Snow.White.and.the.Huntsman.2012.Snow White and the Huntsman [2012]BRRip XviD~ETRG.avi\r\nFormat : AVI\r\nFormat/Info : Audio Video Interleave\r\nFile size : 1.39 GiB\r\nDuration : 1h 57mn\r\nOverall bit rate : 1 693 Kbps\r\nWriting application : Nandub v1.0rc2\r\nWriting library : VirtualDub build 34703/release\r\n\r\nVideo\r\nID : 0393AFE75FE60E5DFB7333229A71F32C8A898030\r\nFormat : MPEG-4 Visual\r\nCodec ID : XVID\r\nBit rate : 1 489 Kbps\r\nWidth : 720 pixels\r\nHeight : 320 pixels\r\nDisplay aspect ratio : 2.25:1\r\nFrame rate : 29.970 fps\r\nStream size : 1.22 GiB (88%)\r\n\r\nAudio\r\nID : 1\r\nFormat : AC-3\r\nBit rate : 192 Kbps\r\nChannel(s) : 2 channels\r\nChannel positions : Front: L R\r\nSampling rate : 48.0 KHz\r\nStream size : 161 MiB (11%)\r\n\r\n\r\nSource - Cam German Thanks\r\nSource - LiNe - Dragon Exclusive Thanks, Awesome work bro\r\n\r\nNotes.\r\nVery nice Cam, Even better LiNe (Cheers Bro) slight flicker every now and then, luckily not to often or to bad. Who reads NFO\'s anyway, so im of to bed, get some BooM Boom and Eat. Enjoy\r\nRemember, if you love it and you want it, Sync some LiNe with it. lol
Snow White and the Huntsman [2012]BRRip XviD~ETRG/ExtraTorrentRG.mp4 1.515 MB
Snow White and the Huntsman [2012]BRRip XviD~ETRG/MOVIE.nfo 4.858 KB
Snow White and the Huntsman [2012]BRRip XviD~ETRG/Sample AVI.avi 2.994 MB
Gathering some info...

Register and log in Isohunt and see no captcha anymore!

4000 symbols left
Hash a171c5430710f4167b61988db3ee2198422e7136

Related torrents for "Snow White and the Huntsman [2012]BRRip XviD~ETRG"

Torrent search:

2012 bd