+18-Secret Game 3 1994 DVDrip Hindi-Eng -=R=-[www mastitorrents com] mkv

Size 842.921 MB   0 seeders     Added 2012-07-11 23:02:55

Stream torrent
Starting‥ You need BitLord! Get it from 1BitLord.com
To download or stream you need BitLord. Visit them at BitLord.com
+18 
[b]Secret Game 3 1994 Hindi-Eng[/b] 

[img]image[/img]

Format : Matroska
File size : 804 MiB
Duration : 1h 26mn
Overall bit rate : 1 292 Kbps

Video
ID : 1
Format : MPEG Video
Codec ID : V_MPEG2
Codec ID/Info : MPEG 1 or 2 Video
Duration : 1h 26mn
Bit rate : 1 010 Kbps
Maximum bit rate : 9 672 Kbps
Width : 352 pixels
Height : 480 pixels
Display aspect ratio : 4:3
Frame rate : 59.940 fps
Original frame rate : 29.970 fps
Standard : NTSC
Stream size : 629 MiB (78%)
Title : Secret Game 1994 DVDrip Hindi-Eng
Language : English


Audio #1
Format : MPEG Audio
Codec ID/Hint : MP3
Duration : 1h 26mn
Bit rate mode : Constant
Bit rate : 128 Kbps
Channel(s) : 2 channels
Stream size : 79.6 MiB (10%)
Language : Hindi


Audio #2
Format : MPEG Audio
Codec ID/Hint : MP2
Duration : 1h 26mn
Bit rate mode : Constant
Bit rate : 128 Kbps
Channel(s) : 2 channels
Stream size : 79.6 MiB (10%)
Language : English


[img]http://desisnap.com/image.php?id=76D1_4FFB81BB&jpg[/img]

[img]http://desisnap.com/image.php?id=4FD3_4FFB81BB&jpg[/img]

[img]http://desisnap.com/image.php?id=9E44_4FFB81BB&jpg[/img]

[img]http://desisnap.com/image.php?id=CAA6_4FFB81BB&jpg[/img]

[img]http://desisnap.com/image.php?id=A5C0_4FFB81BB&jpg[/img]

[img]http://desisnap.com/image.php?id=44D1_4FFB81BB&jpg[/img]

[img]http://desisnap.com/image.php?id=1998_4FFB81BB&jpg[/img]
+18-Secret Game 3 1994 DVDrip Hindi-Eng -=R=-[www.mastitorrents.com].mkv 842.921 MB
Gathering some info...

Register and log in Isohunt and see no captcha anymore!

4000 symbols left
Hash f1da723bd9981d2f7d00047477de302b06a5072b