Angelina Ballerina - Musical Moves

Angelina Ballerina - Musical Moves (2012)

Full description
quality   dvdrip

Angelina Ballerina Musical Moves 2012 DVDRip XviD AC3 CrEwSaDe

Size 762.94 MB   0 seeders     Added 2012-07-12 02:52:47

Stream torrent
Starting‥ You need BitLord! Get it from 1BitLord.com
To download or stream you need BitLord. Visit them at BitLord.com
Looking for fast download speeds come join http://dream-torrents.com for all the latest releases, with friendly staff online radio and games and much much more.\r\n-\r\n-\r\n.\r\nEncoder ..........: DarthMidal \r\nVideo Codec.......: XviD\r\nVideo Bitrate.....: 1 371 Kbps\r\nAudio Codec.......: AC-3\r\nAudio Bitrate.....: 128 kbps \r\nResolution........: 720X384\r\nRuntime...........: 1h 5mn\r\nRelease Date......: 09/07/12\r\nDVD Release Date..: June 12, 2012\r\nLanguage..........: English\r\nSubtitles.........: N/A\r\nIMDB Rating.......: N/A\r\nIMDb URL..........: N/A\r\n\r\n\r\n\r\nGeneral\r\nComplete name : E:\\Angelina.Ballerina.Musical.Moves.2012.DVDRip.XviD.AC3.CrEwSaDe\\Angelina.Ballerina.Musical.Moves.2012.DVDRip.XviD.AC3.CrEwSaDe.avi\r\nFormat : AVI\r\nFormat/Info : Audio Video Interleave\r\nFile size : 705 MiB\r\nDuration : 1h 5mn\r\nOverall bit rate : 1 508 Kbps\r\n\r\nVideo\r\nID : 0\r\nFormat : MPEG-4 Visual\r\nFormat profile : Advanced Simple@L5\r\nFormat settings, BVOP : 2\r\nFormat settings, QPel : No\r\nFormat settings, GMC : No warppoints\r\nFormat settings, Matrix : Default (H.263)\r\nCodec ID : XVID\r\nCodec ID/Hint : XviD\r\nDuration : 1h 5mn\r\nBit rate : 1 371 Kbps\r\nWidth : 720 pixels\r\nHeight : 384 pixels\r\nDisplay aspect ratio : 1.875\r\nFrame rate : 29.970 fps\r\nColor space : YUV\r\nChroma subsampling : 4:2:0\r\nBit depth : 8 bits\r\nScan type : Progressive\r\nCompression mode : Lossy\r\nBits/(Pixel*Frame) : 0.165\r\nStream size : 641 MiB (91%)\r\nWriting library : XviD 1.2.1 (UTC 2008-12-04)\r\n\r\n\r\nAudio\r\nID : 1\r\nFormat : AC-3\r\nFormat/Info : Audio Coding 3\r\nMode extension : CM (complete main)\r\nCodec ID : 2000\r\nDuration : 1h 5mn\r\nBit rate mode : Constant\r\nBit rate : 128 Kbps\r\nChannel(s) : 2 channels\r\nChannel positions : Front: L R\r\nSampling rate : 48.0 KHz\r\nBit depth : 16 bits\r\nCompression mode : Lossy\r\nStream size : 59.8 MiB (8%)\r\nAlignment : Aligned on interleaves\r\nInterleave, duration : 64 ms (1.92 video frames)\r\nInterleave, preload duration : 192 ms\r\nTitle : VTS_01_1 T80 2_0ch 256Kbps DELAY 0ms_new\r\n\r\n\r\n\r\nSOURCES: Angelina.Ballerina.Musical.Moves.2012.NTSC.DVDR-INSECTS Thank you :-D\r\n\r\nVIDEO: Angelina.Ballerina.Musical.Moves.2012.NTSC.DVDR-INSECTS :-D\r\nAUDIO: Angelina.Ballerina.Musical.Moves.2012.NTSC.DVDR-INSECTS :-D\r\n\r\n\r\n\r\nMove to the music with Angelina Ballerina and her friends as they explore the wonderful world of dance! Gracie loses herself to some disco grooves while Alice discovers the power of confidence through jazz! AZ hip-hops to a happy-birthday beat and Ms. Mimi takes her students on a modern dance journey. Angelina shows that friendship like dance is special, and best built one step at a time!
Angelina.Ballerina.Musical.Moves.2012.DVDRip.XviD.AC3.CrEwSaDe.avi 738.86 MB
Angelina.Ballerina.Musical.Moves.2012.DVDRip.XviD.AC3.CrEwSaDe.nfo 10.746 KB
Angelina.Ballerina.Musical.Moves.2012.DVDRip.XviD.AC3.CrEwSaDe.sample.avi 24.069 MB
Gathering some info...

Register and log in Isohunt and see no captcha anymore!

4000 symbols left
Hash D84979A7402EA85B2871C6A2AB99186075414DEB