Marisa Monte - Universo Ao Meu Redor [Eac Flac Cue][TntVillage]

Size 296.824 MB   30 seeders     Added 2012-07-13 05:30:45

Stream torrent
Starting‥ You need BitLord! Get it from BitLord.com
To download or stream you need BitLord. Visit them at BitLord.com
[CENTER][img]image[/img]

[img]image[/img]

[img]image[/img]

[img]image[/img]

Artist: Marisa Monte
Title Of Album: Universo ao meu redor
Etichetta: EMI
Pubblicazione: 2006
Genre: Pop D'Autore Brasiliano
Source: CD
Playing Time: 47.06
Total Size: 282,84 MB
Quality: FLAC+Cue+Log+Info+Cover[Front + Back + CD]
Bitrate: Lossless

[img]image[/img]

1. Universo ao meu redor - 3:11
2. O Bonde do Dom - 4:03
3. Meu canário - 3:13
4. Três letrinhas - 4:10
5. Quatro paredes - 3:14
6. Perdoa, meu amor - 3:05
7. Cantinho escondido - 3:50
8. Statue of Liberty - 1:13
9. A alma e a matéria - 3:29
10. Lágrimas e tormentos - 4:31
11. Satisfeito - 3:09
12. Para mais ninguém - 3:16
13. Vai saber? - 4:00
14. Pétalas esquecidas - 2:33

[img]image[/img]
Timeless and modern at the same time, it is a mature album of gentle sambas, replete with rare elegance and beauty. The bulk of the CD was composed by the now firmly established and highly acclaimed songwriting trio of Arnaldo Antunes, Carlinhos Brown, and Monte herself. Sprinkled in between though are a couple of older, tastefully reinterpreted samba classics by other composers and there are also two newly written (and inspired) songs by Paulinho da Viola and Adriana Calcanhotto. The soundscape, melodies, and lyrics are all very traditional, but the music has the same soothingly dreamy atmosphere that characterized Tribalistas. Thanks to the excellent production, there is also an ever so slight spark of psychedelia to the album, which helps in creating the general escapist mood. Monte's vocal performance is flawless as ever, with her voice floating effortlessly and in perfect harmony with the rest of the music. Songs such as "Bonde do Dom," "Três Letrinhas," "Vai Saber?," "A Alma e a Matéria," and "Universo ao Meu Redor," all enchantingly beautiful, are as close as you get to perfection in form of samba. A somewhat amusing detail is David Byrne's cameo appearance as vocalist on "Statue of Liberty." Universo ao Meu Redor is Monte's most mature, even, and ultimately impressive album to date.

[img]image[/img]

[quote]Exact Audio Copy V1.0 beta 3 from 29. August 2011

EAC extraction logfile from 11. July 2012, 16:12

Marisa Monte / Universo ao meu redor

Used drive  : HL-DT-STDVDRAM GSA-T40N   Adapter: 0  ID: 0

Read mode               : Secure
Utilize accurate stream : Yes
Defeat audio cache      : Yes
Make use of C2 pointers : No

Read offset correction                      : 667
Overread into Lead-In and Lead-Out          : No
Fill up missing offset samples with silence : Yes
Delete leading and trailing silent blocks   : No
Null samples used in CRC calculations       : Yes
Used interface                              : Native Win32 interface for Win NT & 2000
Gap handling                                : Appended to previous track

Used output format              : User Defined Encoder
Selected bitrate                : 896 kBit/s
Quality                         : High
Add ID3 tag                     : No
Command line compressor         : C:\Program Files\Exact Audio Copy\FLAC\FLAC.EXE
Additional command line options : -8 -V -T "ARTIST=%artist%" -T "TITLE=%title%" -T "ALBUM=%albumtitle%" -T "DATE=%year%" -T "TRACKNUMBER=%tracknr%" -T "GENRE=%genre%" -T "COMMENT=%comment%" -T "BAND=%albuminterpret%" -T "ALBUMARTIST=%albuminterpret%" -T "COMPOSER=%composer%" %haslyrics%--tag-from-file=LYRICS="%lyricsfile%"%haslyrics% -T "DISCNUMBER=%cdnumber%" -T "TOTALDISCS=%totalcds%" -T "TOTALTRACKS=%numtracks%" %hascover%--picture="%coverfile%"%hascover% %source% -o %dest%


TOC of the extracted CD

     Track |   Start  |  Length  | Start sector | End sector 
    ---------------------------------------------------------
        1  |  0:00.00 |  3:11.37 |         0    |    14361   
        2  |  3:11.37 |  4:03.52 |     14362    |    32638   
        3  |  7:15.14 |  3:13.72 |     32639    |    47185   
        4  | 10:29.11 |  4:10.69 |     47186    |    66004   
        5  | 14:40.05 |  3:14.13 |     66005    |    80567   
        6  | 17:54.18 |  3:05.57 |     80568    |    94499   
        7  | 21:00.00 |  3:50.33 |     94500    |   111782   
        8  | 24:50.33 |  1:13.44 |    111783    |   117301   
        9  | 26:04.02 |  3:29.74 |    117302    |   133050   
       10  | 29:34.01 |  4:31.62 |    133051    |   153437   
       11  | 34:05.63 |  3:09.33 |    153438    |   167645   
       12  | 37:15.21 |  3:16.27 |    167646    |   182372   
       13  | 40:31.48 |  4:00.30 |    182373    |   200402   
       14  | 44:32.03 |  2:34.25 |    200403    |   211977   


Track  1

     Filename H:\MY EAC[.FLAC]\Marisa Monte - Univeerso Ao Meu Redor\(1) Universo Ao Meu Redor - Marisa Monte.flac

     Pre-gap length  0:00:02.00

     Peak level 98.8 %
     Extraction speed 2.0 X
     Track quality 100.0 %
     Test CRC 8D9795EA
     Copy CRC 8D9795EA
     Accurately ripped (confidence 2)  [9AE32254]  (AR v1)
     Copy OK

Track  2

     Filename H:\MY EAC[.FLAC]\Marisa Monte - Univeerso Ao Meu Redor\(2) O Bonde Do Dom - Marisa Monte.flac

     Pre-gap length  0:00:00.66

     Peak level 98.8 %
     Extraction speed 2.0 X
     Track quality 99.9 %
     Test CRC 9858ADB8
     Copy CRC 9858ADB8
     Accurately ripped (confidence 2)  [C3F6C980]  (AR v1)
     Copy OK

Track  3

     Filename H:\MY EAC[.FLAC]\Marisa Monte - Univeerso Ao Meu Redor\(3) Meu Canario - Marisa Monte.flac

     Pre-gap length  0:00:01.26

     Peak level 98.8 %
     Extraction speed 2.4 X
     Track quality 100.0 %
     Test CRC B64AB602
     Copy CRC B64AB602
     Accurately ripped (confidence 2)  [21027C30]  (AR v1)
     Copy OK

Track  4

     Filename H:\MY EAC[.FLAC]\Marisa Monte - Univeerso Ao Meu Redor\(4) Tres Letrinhas - Marisa Monte.flac

     Pre-gap length  0:00:01.49

     Peak level 98.8 %
     Extraction speed 2.3 X
     Track quality 100.0 %
     Test CRC D0DEDF65
     Copy CRC D0DEDF65
     Accurately ripped (confidence 2)  [6A70689B]  (AR v1)
     Copy OK

Track  5

     Filename H:\MY EAC[.FLAC]\Marisa Monte - Univeerso Ao Meu Redor\(5) Quatro Paredes - Marisa Monte.flac

     Pre-gap length  0:00:01.49

     Peak level 98.8 %
     Extraction speed 2.0 X
     Track quality 99.9 %
     Test CRC A415AC2E
     Copy CRC A415AC2E
     Accurately ripped (confidence 2)  [D946ECC5]  (AR v1)
     Copy OK

Track  6

     Filename H:\MY EAC[.FLAC]\Marisa Monte - Univeerso Ao Meu Redor\(6) Perdoa, Meu Amor - Marisa Monte.flac

     Pre-gap length  0:00:01.64

     Peak level 98.8 %
     Extraction speed 2.4 X
     Track quality 100.0 %
     Test CRC 07A49B74
     Copy CRC 07A49B74
     Accurately ripped (confidence 2)  [28E77041]  (AR v1)
     Copy OK

Track  7

     Filename H:\MY EAC[.FLAC]\Marisa Monte - Univeerso Ao Meu Redor\(7) Cantinho Escondido - Marisa Monte.flac

     Pre-gap length  0:00:01.66

     Peak level 98.8 %
     Extraction speed 2.5 X
     Track quality 100.0 %
     Test CRC 46CCBA1C
     Copy CRC 46CCBA1C
     Accurately ripped (confidence 2)  [2DF019AB]  (AR v1)
     Copy OK

Track  8

     Filename H:\MY EAC[.FLAC]\Marisa Monte - Univeerso Ao Meu Redor\(8) Statue Of Liberty - Marisa Monte.flac

     Pre-gap length  0:00:02.49

     Peak level 98.8 %
     Extraction speed 2.0 X
     Track quality 100.0 %
     Test CRC 5E84ED17
     Copy CRC 5E84ED17
     Accurately ripped (confidence 2)  [13215DA6]  (AR v1)
     Copy OK

Track  9

     Filename H:\MY EAC[.FLAC]\Marisa Monte - Univeerso Ao Meu Redor\(9) A Alma E A Materia - Marisa Monte.flac

     Pre-gap length  0:00:00.25

     Peak level 98.8 %
     Extraction speed 2.7 X
     Track quality 100.0 %
     Test CRC 262FB177
     Copy CRC 262FB177
     Accurately ripped (confidence 2)  [CCD8FCC4]  (AR v1)
     Copy OK

Track 10

     Filename H:\MY EAC[.FLAC]\Marisa Monte - Univeerso Ao Meu Redor\(10) Lagrimas E Tormentos - Marisa Monte.flac

     Peak level 98.8 %
     Extraction speed 2.3 X
     Track quality 99.9 %
     Test CRC 916519DA
     Copy CRC 916519DA
     Accurately ripped (confidence 2)  [486FDAC5]  (AR v1)
     Copy OK

Track 11

     Filename H:\MY EAC[.FLAC]\Marisa Monte - Univeerso Ao Meu Redor\(11) Satisfeito - Marisa Monte.flac

     Pre-gap length  0:00:00.26

     Peak level 98.8 %
     Extraction speed 2.8 X
     Track quality 100.0 %
     Test CRC B423A075
     Copy CRC B423A075
     Accurately ripped (confidence 2)  [49AAC83F]  (AR v1)
     Copy OK

Track 12

     Filename H:\MY EAC[.FLAC]\Marisa Monte - Univeerso Ao Meu Redor\(12) Para Mais Ninguem - Marisa Monte.flac

     Pre-gap length  0:00:01.00

     Peak level 98.8 %
     Extraction speed 1.9 X
     Track quality 100.0 %
     Test CRC C9C69D64
     Copy CRC C9C69D64
     Accurately ripped (confidence 2)  [0C04075D]  (AR v1)
     Copy OK

Track 13

     Filename H:\MY EAC[.FLAC]\Marisa Monte - Univeerso Ao Meu Redor\(13) Vai Saber - Marisa Monte.flac

     Pre-gap length  0:00:02.00

     Peak level 98.8 %
     Extraction speed 2.0 X
     Track quality 100.0 %
     Test CRC 20C83CC8
     Copy CRC 20C83CC8
     Accurately ripped (confidence 2)  [4592E420]  (AR v1)
     Copy OK

Track 14

     Filename H:\MY EAC[.FLAC]\Marisa Monte - Univeerso Ao Meu Redor\(14) Petalas Esquecidas - Marisa Monte.flac

     Pre-gap length  0:00:01.66

     Peak level 98.8 %
     Extraction speed 1.9 X
     Track quality 100.0 %
     Test CRC 96B8BD06
     Copy CRC 96B8BD06
     Accurately ripped (confidence 2)  [B78D23DD]  (AR v1)
     Copy OK


All tracks accurately ripped

No errors occurred

End of status report

==== Log checksum DC035812B139D108D1B6605A7E08C1663904754ECE68DBCDBD0BE536B7E5BB11 ====[/quote]

[img]image[/img]
[img]image[/img][/CENTER]
Folder/MARISAMONTEBACK.jpg 87.251 KB
Folder/MARISAMONTECD.gif 60.132 KB
Folder/MARISAMONTEFRONT.jpg 79.512 KB
Gathering some info...

Register and log in Isohunt and see no captcha anymore!

4000 symbols left
Hash 4B4F85DEF7CA7CFF735D2F50F4946A521B440FB3