The Dark Knight Rises

Size 1.823 GB   0 seeders     Added 2012-07-14 07:07:20

Stream torrent
Starting‥ You need BitLord! Get it from 1BitLord.com
To download or stream you need BitLord. Visit them at BitLord.com
image\r\n\r\n\r\nThe.Dark.Knight.Rises.2012.TS.XViD.AC3.Hive-CM8\r\n\r\n\r\n[b]Thx Hive\r\n\r\nCM8 Doing It Right The First Time :D\r\n\r\n\r\nSources:\r\nVideo: 26K CAM - Thx\r\nVideo: New Source CAM from a friend - Thx\r\nAudio: DrunkenNinja LiNe Audio - Thx   \r\n\r\nEncode:\r\nVideo: 720x288 @bitrate 1700\r\nAudio: English AC-3 @128 Kbps\r\nSample: Yes, included\r\n\r\nNotes:\r\nSplit Cams into Pieces, Fixed AR, FPS and BitRate and then cleaned video and merged.\r\nThen on to syncing very nice Audio. Still a few bits of movie missing, not available at time of Encode.\r\nGot very nice, dark scenes are clear and movie is now very watchable. Audio is outstanding, Great job DN.\r\n\r\nBig Thx to SeeN for the great sync job - Cheers M8[/b]\r\n\r\n\r\nhttp://www.imdb.com/title/tt1345836/\r\n\r\n\r\nGeneral\r\nComplete name                            : 2012.TS.XViD.AC3.Hive-CM8\r\nFormat                                   : AVI\r\nFormat/Info                              : Audio Video Interleave\r\nFile size                                : 1.69 GiB\r\nDuration                                 : 2h 14mn\r\nOverall bit rate                         : 1 845 Kbps\r\nWriting library                          : VirtualDub build 34703/release\r\n\r\nVideo\r\nID                                       : 0\r\nFormat                                   : MPEG-4 Visual\r\nFormat profile                           : Advanced Simple@L5\r\nFormat settings, BVOP                    : 2\r\nFormat settings, QPel                    : Yes\r\nFormat settings, GMC                     : No warppoints\r\nFormat settings, Matrix                  : Default (H.263)\r\nMuxing mode                              : Packed bitstream\r\nCodec ID                                 : XVID\r\nCodec ID/Hint                            : XviD\r\nDuration                                 : 2h 14mn\r\nBit rate                                 : 1 707 Kbps\r\nWidth                                    : 720 pixels\r\nHeight                                   : 288 pixels\r\nDisplay aspect ratio                     : 2.500\r\nFrame rate                               : 25.000 fps\r\nColor space                              : YUV\r\nChroma subsampling                       : 4:2:0\r\nBit depth                                : 8 bits\r\nScan type                                : Progressive\r\nCompression mode                         : Lossy\r\nBits/(Pixel*Frame)                       : 0.329\r\nStream size                              : 1.47 GiB (93%)\r\nWriting library                          : XviD 1.2.1 (UTC 2008-12-04)\r\n\r\nAudio\r\nID                                       : 1\r\nFormat                                   : AC-3\r\nFormat/Info                              : Audio Coding 3\r\nMode extension                           : CM (complete main)\r\nFormat settings, Endianness              : Big\r\nCodec ID                                 : 2000\r\nDuration                                 : 2h 14mn\r\nBit rate mode                            : Constant\r\nBit rate                                 : 128 Kbps\r\nChannel(s)                               : 2 channels\r\nChannel positions                        : Front: L R\r\nSampling rate                            : 48.0 KHz\r\nBit depth                                : 16 bits\r\nCompression mode                         : Lossy\r\nStream size                              : 113 MiB (7%)\r\nAlignment                                : Aligned on interleaves\r\nInterleave, duration                     : 40 ms (1.00 video frame)\r\nInterleave, preload duration             : 512 ms\r\n\r\n\r\nPlot:\r\nEight years on, a new terrorist leader, Bane, overwhelms Gotham\'s finest, and the Dark Knight resurfaces to protect a city that has branded him an enemy. \r\n\r\n\r\n\r\nDirector:\r\nChristopher Nolan\r\nWriters:\r\nJonathan Nolan (screenplay), Christopher Nolan (screenplay), and 3 more credits »\r\nStars:\r\nChristian Bale, Michael Caine and Gary Oldman \r\n\r\n\r\n\r\nGreetz\r\n\r\nViSiON,SPK,SceneLovers,PRESTiGE,SANTi,3LT0N,YanKeeS,COPYxRIGHT,THC,T0XiC\r\nD2U,LKRG,ADTRG,Feel-Free,KoDeKinG,FLAWL3SS,WBZ,BHRG,26K,NOVA,MAGNET\r\nUnevano,BigVik,Rapeseed,SAFC,TED,goldadvance,KaN1vE,Pinnz,Wayne\r\nMr Hive,jtr,Limey,ICONiK,SeeN and most P2P groups\r\nGreat Work Guys :D\r\n\r\nLOOKING FOR ANYTHING YOU WANT TO LOOK AND SOUND BETTER\r\n\r\nCM8@hushmail.com\r\n
The Dark Knight Rises/The.Dark.Knight.Rises.2012.TS.XViD.AC3.Hive-CM8.rar 1.823 GB
The Dark Knight Rises/13-07-2012 16-19-10.jpg 44.028 KB
The Dark Knight Rises/13-07-2012 16-19-32.jpg 43.197 KB
Gathering some info...

Register and log in Isohunt and see no captcha anymore!

4000 symbols left
Hash 5b53310bd373a5a8f03e74ad84c86bb6127acba1

Related torrents for "The Dark Knight Rises"

Torrent search:

2012