The Cabin in the Woods .2012BDRip.XviD-SCREAM

Size 1.823 GB   0 seeders     Added 2012-07-15 00:18:51

To download or stream you need BitLord. Visit them at BitLord.com
image

The.Cabin.in.the.Woods.2012BDRip.XviD-SCREAM 


Thx Hive

CM8 Doing It Right The First Time :D


Sources:
Video: 26K Dvd - Thx
Video: New Source Dvd from a friend - Thx
Audio: DrunkenNinja LiNe Audio - Thx   

Encode:
Video: 720x288 @bitrate 1700
Audio: English AC-3 @128 Kbps
Sample: Yes, included

Notes:
Five friends go for a break at a remote cabin in the woods, where they get more than they bargained for. Together, they must discover the truth behind the cabin in the woods. 

Big Thx to SeeN for the great sync job - Cheers M8[/b]


http://www.imdb.com/title/tt1259521/


General
Complete name                            : The.Cabin.in.the.Woods.2012BDRip.XviD-SCREAM 
Format                                   : AVI
Format/Info                              : Audio Video Interleave
File size                                : 1.69 GiB
Duration                                 : 1h 35mn
Overall bit rate                         : 1 845 Kbps
Writing library                          : VirtualDub build 34703/release

Video
ID                                       : 0
Format                                   : MPEG-4 Visual
Format profile                           : Advanced Simple@L5
Format settings, BVOP                    : 2
Format settings, QPel                    : Yes
Format settings, GMC                     : No warppoints
Format settings, Matrix                  : Default (H.263)
Muxing mode                              : Packed bitstream
Codec ID                                 : XVID
Codec ID/Hint                            : XviD
Duration                                 : 1h 35mn
Bit rate                                 : 1 707 Kbps
Width                                    : 720 pixels
Height                                   : 288 pixels
Display aspect ratio                     : 2.500
Frame rate                               : 25.000 fps
Color space                              : YUV
Chroma subsampling                       : 4:2:0
Bit depth                                : 8 bits
Scan type                                : Progressive
Compression mode                         : Lossy
Bits/(Pixel*Frame)                       : 0.329
Stream size                              : 1.47 GiB (93%)
Writing library                          : XviD 1.2.1 (UTC 2008-12-04)

Audio
ID                                       : 1
Format                                   : AC-3
Format/Info                              : Audio Coding 3
Mode extension                           : CM (complete main)
Format settings, Endianness              : Big
Codec ID                                 : 2000
Duration                                 : 1h 35mn
Bit rate mode                            : Constant
Bit rate                                 : 128 Kbps
Channel(s)                               : 2 channels
Channel positions                        : Front: L R
Sampling rate                            : 48.0 KHz
Bit depth                                : 16 bits
Compression mode                         : Lossy
Stream size                              : 113 MiB (7%)
Alignment                                : Aligned on interleaves
Interleave, duration                     : 40 ms (1.00 video frame)
Interleave, preload duration             : 512 ms


Plot:
Five friends go for a break at a remote cabin in the woods, where they get more than they bargained for. Together, they must discover the truth behind the cabin in the woods. 




Director:
Drew Goddard
Writers:
Joss Whedon, Drew Goddard
Stars:
Kristen Connolly, Chris Hemsworth and Anna Hutchison 

image 
image 
image



Greetz

ViSiON,SPK,SceneLovers,PRESTiGE,SANTi,3LT0N,YanKeeS,COPYxRIGHT,THC,T0XiC
D2U,LKRG,ADTRG,Feel-Free,KoDeKinG,FLAWL3SS,WBZ,BHRG,26K,NOVA,MAGNET
Unevano,BigVik,Rapeseed,SAFC,TED,goldadvance,KaN1vE,Pinnz,Wayne
Mr Hive,jtr,Limey,ICONiK,SeeN and most P2P groups
Great Work Guys :D

LOOKING FOR ANYTHING YOU WANT TO LOOK AND SOUND BETTER

CM8@hushmail.com
The Cabin in the Woods/The.Cabin.in.the.Woods.2012BDRip.XviD-SCREAM .rar 1.823 GB
The Cabin in the Woods/The.Cabin.in.the.Woods.2012.TS.XViD.AC3.Hive-CM8.nfo 4.093 KB
Gathering some info...

Register and log in Isohunt and see no captcha anymore!

4000 symbols left
Hash ae2d3be016921b67f0c40fe28115eb6ad73fdb75

Related torrents for "The Cabin in the Woods .2012BDRip.XviD-SCREAM"

Torrent search:

2012