Layzie Bone - How A Thug Was Born (2007 FLAC)

Size 472.501 MB   0 seeders     Added 2012-07-15 02:40:31

Stream torrent
Starting‚Ä• You need BitLord! Get it from 1BitLord.com
To download or stream you need BitLord. Visit them at BitLord.com
image

Track List:

01. Mo Thug Anthem Feat. Mo Thugs Soldiers
02. Cruisin Feat. Eazy E
03. Fly The Coup Feat. Big Caz & Krayzie Bone
04. Stop The Music Feat. Thin C & 2pac
05. Take A Trip Feat. Thin C
06. Grab A Drink Feat. LKW
07. Baby Come Back Feat. Mo Thugs Soldiers
08. Burn 2007 Feat. Keef G, Thin C & BTNH
09. Stand Up Feat. Thin C
10. Tonite Feat. Big Caz
11. Yesterday Feat. Mo Thugs Soldiers
12. Get Some Feat. Thin C
13. Caught Up Feat. Blaze & Big Caz
14. Whatya Lookn For Feat. Thin C
15. Grimy Feat. Mo Thugs Soldiers
16. Family Feat. Mo Thugs Soldiers
17. 2wice Feat. Flesh-N-Bone

<code>
Exact Audio Copy V1.0 beta 3 from 29. August 2011
EAC extraction logfile from 7. July 2012, 13:45
Layzie Bone / How A Thug Was Born
Used drive : HL-DT-STDVDRAM GH22LS50 Adapter: 3 ID: 1
Read mode : Secure
Utilize accurate stream : Yes
Defeat audio cache : Yes
Make use of C2 pointers : No
Read offset correction : 667
Overread into Lead-In and Lead-Out : No
Fill up missing offset samples with silence : Yes
Delete leading and trailing silent blocks : No
Null samples used in CRC calculations : Yes
Used interface : Native Win32 interface for Win NT & 2000
Gap handling : Appended to previous track
Used output format : User Defined Encoder
Selected bitrate : 1024 kBit/s
Quality : High
Add ID3 tag : No
Command line compressor : C:Program Files (x86)Exact Audio CopyFlacflac.exe
Additional command line options : -8 -V -T "ARTIST=%artist%" -T "TITLE=%title%" -T "ALBUM=%albumtitle%" -T "DATE=%year%" -T "TRACKNUMBER=%tracknr%" -T "GENRE=%genre%" -T "PERFORMER=%albuminterpret%" -T "COMPOSER=%composer%" %haslyrics%--tag-from-file=LYRICS="%lyricsfile%"%haslyrics% -T "ALBUMARTIST=%albumartist%" -T "DISCNUMBER=%cdnumber%" -T "TOTALDISCS=%totalcds%" -T "TOTALTRACKS=%numtracks%" -T "COMMENT=%comment%" %source% -o %dest%
TOC of the extracted CD
 Track | Start | Length | Start sector | End sector
 ---------------------------------------------------------
 1 | 0:00.00 | 4:05.26 | 0 | 18400 
 2 | 4:05.26 | 4:24.57 | 18401 | 38257 
 3 | 8:30.08 | 3:13.32 | 38258 | 52764 
 4 | 11:43.40 | 3:27.38 | 52765 | 68327 
 5 | 15:11.03 | 3:57.27 | 68328 | 86129 
 6 | 19:08.30 | 3:25.73 | 86130 | 101577 
 7 | 22:34.28 | 3:53.43 | 101578 | 119095 
 8 | 26:27.71 | 2:56.19 | 119096 | 132314 
 9 | 29:24.15 | 4:01.20 | 132315 | 150409 
 10 | 33:25.35 | 3:50.59 | 150410 | 167718 
 11 | 37:16.19 | 3:49.56 | 167719 | 184949 
 12 | 41:06.00 | 3:16.55 | 184950 | 199704 
 13 | 44:22.55 | 5:24.16 | 199705 | 224020 
 14 | 49:46.71 | 3:49.31 | 224021 | 241226 
 15 | 53:36.27 | 4:04.67 | 241227 | 259593 
 16 | 57:41.19 | 4:11.35 | 259594 | 278453 
 17 | 61:52.54 | 4:56.19 | 278454 | 300672 
Track 1
 Filename 01. Mo Thug Anthem (Feat. Mo Thugs Soldiers).wav
 Pre-gap length 0:00:02.00
 Peak level 97.7 %
 Extraction speed 1.0 X
 Track quality 99.9 %
 Test CRC 41C3144C
 Copy CRC 41C3144C
 Accurately ripped (confidence 1) [7FAAA930] (AR v2)
 Copy OK
Track 2
 Filename 02. Cruisin.wav
 Pre-gap length 0:00:02.00
 Peak level 97.7 %
 Extraction speed 1.3 X
 Track quality 100.0 %
 Test CRC 1D0FBB04
 Copy CRC 1D0FBB04
 Accurately ripped (confidence 1) [40E6D528] (AR v2)
 Copy OK
Track 3
 Filename 03. Fly The Coup (Feat. Big Caz & Krayzie Bone).wav
 Pre-gap length 0:00:02.00
 Peak level 97.7 %
 Extraction speed 1.3 X
 Track quality 100.0 %
 Test CRC 2812808B
 Copy CRC 2812808B
 Accurately ripped (confidence 1) [FC42C45A] (AR v2)
 Copy OK
Track 4
 Filename 04. Stop The Music (Feat. Thin C & 2Pac).wav
 Pre-gap length 0:00:02.00
 Peak level 97.7 %
 Extraction speed 1.2 X
 Track quality 99.9 %
 Test CRC B1C27085
 Copy CRC B1C27085
 Accurately ripped (confidence 1) [4D6E9506] (AR v2)
 Copy OK
Track 5
 Filename 05. Take A Trip (Feat. Thin C).wav
 Pre-gap length 0:00:02.00
 Peak level 97.7 %
 Extraction speed 1.3 X
 Track quality 99.9 %
 Test CRC 5BB9AE0E
 Copy CRC 5BB9AE0E
 Accurately ripped (confidence 1) [1C2610C3] (AR v2)
 Copy OK
Track 6
 Filename 06. Grab A Drink (Feat. LKW).wav
 Pre-gap length 0:00:02.00
 Peak level 97.7 %
 Extraction speed 1.6 X
 Track quality 100.0 %
 Test CRC 9DC0EEA4
 Copy CRC 9DC0EEA4
 Accurately ripped (confidence 1) [E5A7FE0D] (AR v2)
 Copy OK
Track 7
 Filename 07. Baby Come Back (Feat. Mo Thugs Soldiers).wav
 Pre-gap length 0:00:02.00
 Peak level 97.7 %
 Extraction speed 1.6 X
 Track quality 100.0 %
 Test CRC 8883487A
 Copy CRC 8883487A
 Accurately ripped (confidence 1) [70FF0CF3] (AR v2)
 Copy OK
Track 8
 Filename 08. Burn 2007 (Feat. Keef G, Thin C & Bone Thugs N Harmony).wav
 Pre-gap length 0:00:02.00
 Peak level 97.7 %
 Extraction speed 1.4 X
 Track quality 99.9 %
 Test CRC CC56F61A
 Copy CRC CC56F61A
 Accurately ripped (confidence 1) [38DB0039] (AR v2)
 Copy OK
Track 9
 Filename 09. Stand Up (Feat. Thin C).wav
 Pre-gap length 0:00:02.00
 Peak level 97.7 %
 Extraction speed 1.8 X
 Track quality 100.0 %
 Test CRC 0F39B55D
 Copy CRC 0F39B55D
 Accurately ripped (confidence 1) [4C941C9B] (AR v2)
 Copy OK
Track 10
 Filename 10. Tonite (Feat. Big Caz).wav
 Pre-gap length 0:00:02.00
 Peak level 97.7 %
 Extraction speed 1.9 X
 Track quality 100.0 %
 Test CRC 2FCDB88D
 Copy CRC 2FCDB88D
 Accurately ripped (confidence 1) [115CE390] (AR v2)
 Copy OK
Track 11
 Filename 11. Yesterday (Feat. Mo Thugs Soldiers).wav
 Pre-gap length 0:00:02.00
 Peak level 97.7 %
 Extraction speed 1.7 X
 Track quality 99.9 %
 Test CRC 14A188B6
 Copy CRC 14A188B6
 Accurately ripped (confidence 1) [4D4BAC1A] (AR v2)
 Copy OK
Track 12
 Filename 12. Get Some (Feat. Thin C).wav
 Pre-gap length 0:00:02.00
 Peak level 97.7 %
 Extraction speed 1.9 X
 Track quality 100.0 %
 Test CRC C693E2FB
 Copy CRC C693E2FB
 Accurately ripped (confidence 1) [C929C5A4] (AR v2)
 Copy OK
Track 13
 Filename 13. Caught Up (Feat. Blaze & Big Caz).wav
 Pre-gap length 0:00:02.00
 Peak level 97.7 %
 Extraction speed 2.1 X
 Track quality 100.0 %
 Test CRC 05DE5686
 Copy CRC 05DE5686
 Accurately ripped (confidence 1) [F793D5F2] (AR v2)
 Copy OK
Track 14
 Filename 14. Whatya Lookin For (Feat. Thin C).wav
 Pre-gap length 0:00:02.00
 Peak level 97.7 %
 Extraction speed 1.8 X
 Track quality 99.9 %
 Test CRC 3A385ECF
 Copy CRC 3A385ECF
 Accurately ripped (confidence 1) [E0AEB46E] (AR v2)
 Copy OK
Track 15
 Filename 15. Grimy (Feat. Mo Thugs Soldiers).wav
 Pre-gap length 0:00:02.00
 Peak level 97.7 %
 Extraction speed 2.2 X
 Track quality 100.0 %
 Test CRC C0C9D3ED
 Copy CRC C0C9D3ED
 Accurately ripped (confidence 1) [5C923144] (AR v2)
 Copy OK
Track 16
 Filename 16. Family (Feat. Mo Thugs Soldiers).wav
 Pre-gap length 0:00:02.00
 Peak level 97.7 %
 Extraction speed 2.2 X
 Track quality 100.0 %
 Test CRC CECE3954
 Copy CRC CECE3954
 Accurately ripped (confidence 1) [33A580C0] (AR v2)
 Copy OK
Track 17
 Filename 17. 2wice (Feat. Flesh-n-Bone).wav
 Pre-gap length 0:00:02.00
 Peak level 97.7 %
 Extraction speed 2.4 X
 Track quality 100.0 %
 Test CRC 73BBAEAE
 Copy CRC 73BBAEAE
 Accurately ripped (confidence 1) [8A3F66AF] (AR v2)
 Copy OK
All tracks accurately ripped
No errors occurred
End of status report
---- CUETools DB Plugin V2.1.3
[CTDB TOCID: TlkOM421QQ4aYl7E5luVIJkbeb8-] disk not present in database, Submit result: TlkOM421QQ4aYl7E5luVIJkbeb8- has been uploaded
==== Log checksum 5817DA770B442930A0A6D9AE46594BF2C28667675E2299F2C8CD10702CA36C10 ====</code>
01. Mo Thug Anthem (Feat. Mo Thugs Soldiers).flac 29.332 MB
02. Cruisin.flac 30.418 MB
03. Fly The Coup (Feat. Big Caz & Krayzie Bone).flac 22.763 MB
Gathering some info...

Register and log in Isohunt and see no captcha anymore!

4000 symbols left
Hash FDD8E017487EACAB8B11A420B1CB25FA9B69CE1E