Emulation 2010 DVDrip English Klam

Size 1.377 GB   0 seeders     Added 2012-07-15 02:45:32

Stream torrent
Starting‥ You need BitLord! Get it from 1BitLord.com
To download or stream you need BitLord. Visit them at BitLord.com
[img] image[/img]\r\n\r\nWith: Steven Chiado, Jeff Howanek and Christian M. Condrick\r\n\r\nDe ‘Emulation Corp’ is een bedrijf dat levensgevaarlijke gebeurtenissen simuleert voor hun klanten, zodat het net is alsof ze echt een spectaculair avontuur beleven. Maar wat voor Noah Wilson begon als een spel wordt keiharde realiteit, wanneer één van de personages in zijn avontuur echt vermoord wordt en Noah als hoofdverdachte wordt aangewezen. Noah wordt opgejaagd door de politie en de FBI en is tegelijkertijd het doelwit van een aantal koelbloedige huurmoordenaars.\r\n\r\nYesterday Noah Wilson was an average college student-- today he is the FBI's Most Wanted. He is a fugitive on the run...\r\n\r\nhttp://www.imdb.com/title/tt1729549\r\n\r\n[COLOR=#3300FF]------------------------ Dutch Friends ------------------------\r\n---------------------------------------------------------------\r\n- Bezoek ook eens mijn vrienden op:  http://www.Film-Test.nl --\r\n----- voor mijn Nederlandse Sync. ondertitels ---- en meer ----\r\n------- http://www.Film-Test.nl ---- voor Films en meer -------\r\n---------------------------------------------------------------[/COLOR]\r\n\r\nGeneral:\r\n\r\nComplete name                    : Emulation\\Emulation.avi\r\nFormat                           : AVI\r\nFormat/Info                      : Audio Video Interleave\r\nFile size                        : 1.28 GiB\r\nDuration                         : 1h 20mn\r\nOverall bit rate                 : 2 271 Kbps\r\n\r\nVideo:\r\n\r\nFormat                           : MPEG-4 Visual\r\nFormat profile                   : Simple@L3\r\nFormat settings, BVOP            : No\r\nFormat settings, QPel            : No\r\nFormat settings, GMC             : No warppoints\r\nFormat settings, Matrix          : Default (H.263)\r\nCodec ID                         : XVID\r\nCodec ID/Hint                    : XviD\r\nDuration                         : 1h 20mn\r\nBit rate                         : 1 812 Kbps\r\nWidth                            : 720 pixels\r\nHeight                           : 304 pixels\r\nDisplay aspect ratio             : 2.35:1\r\nFrame rate                       : 25.000 fps\r\nColor space                      : YUV\r\nChroma subsampling               : 4:2:0\r\nBit depth                        : 8 bits\r\nScan type                        : Progressive\r\nCompression mode                 : Lossy\r\nBits/(Pixel*Frame)               : 0.331\r\nStream size                      : 1.02 GiB (80%)\r\nWriting library                  : XviD 1.1.2 (UTC 2006-11-01)\r\n\r\nAudio:\r\n\r\nFormat                           : AC-3\r\nFormat/Info                      : Audio Coding 3\r\nMode extension                   : CM (complete main)\r\nCodec ID                         : 2000\r\nDuration                         : 1h 20mn\r\nBit rate mode                    : Constant\r\nBit rate                         : 448 Kbps\r\nChannel(s)                       : 6 channels\r\nChannel positions                : Front: L C R, Side: L R, LFE\r\nSampling rate                    : 48.0 KHz\r\nBit depth                        : 16 bits\r\nCompression mode                 : Lossy\r\nStream size                      : 259 MiB (20%)\r\nAlignment                        : Aligned on interleaves\r\nInterleave, duration             : 32 ms (0.80 video frame)\r\nInterleave, preload duration     : 640 ms
Cover/Emulation.jpeg 53.75 KB
Cover/www.Film-Test.nl.JPG 36.286 KB
Emulation.avi 1.377 GB
Gathering some info...

Register and log in Isohunt and see no captcha anymore!

4000 symbols left
Hash 4AEB9C18E1B512E4134322771A58DB05F2F0C573