Ice Age 4 Continental Drift 2012

Size 722.012 MB   0 seeders     Added 2012-07-15 12:26:15

To download or stream you need BitLord. Visit them at BitLord.com
[IMG]image[/IMG]



Plot: Manny, Diego, and Sid embark upon another adventure after their continent is set adrift. Using an iceberg as a ship, they encounter sea creatures and battle pirates as they explore a new world.



Directors:
Steve Martino, Mike Thurmeier

Writers:
Michael Berg (screenplay), Jason Fuchs (screenplay)

Stars:
Ray Romano, Denis Leary and John Leguizamo

Genres:
Animation | Adventure | Comedy | Family


Country:
USA

Language:
English  



Format                                   : AVI
Format/Info                              : Audio Video Interleave
File size                                : 689 MiB
Duration                                 : 1h 19mn
Overall bit rate                         : 1 209 Kbps
Writing application                      : Lavf54.3.100

Video
ID                                       : 0
Format                                   : MPEG-4 Visual
Format profile                           : Simple@L3
Format settings, BVOP                    : No
Format settings, QPel                    : No
Format settings, GMC                     : No warppoints
Format settings, Matrix                  : Default (H.263)
Codec ID                                 : XVID
Codec ID/Hint                            : XviD
Duration                                 : 1h 19mn
Bit rate                                 : 1 070 Kbps
Width                                    : 640 pixels
Height                                   : 280 pixels
Display aspect ratio                     : 2.25:1
Frame rate                               : 25.000 fps
Color space                              : YUV
Chroma subsampling                       : 4:2:0
Bit depth                                : 8 bits
Scan type                                : Progressive
Compression mode                         : Lossy
Bits/(Pixel*Frame)                       : 0.239
Stream size                              : 609 MiB (89%)
Writing library                          : XviD 64

Audio
ID                                       : 1
Format                                   : AC-3
Format/Info                              : Audio Coding 3
Mode extension                           : CM (complete main)
Format settings, Endianness              : Big
Codec ID                                 : 2000
Duration                                 : 1h 19mn
Bit rate mode                            : Constant
Bit rate                                 : 128 Kbps
Channel(s)                               : 2 channels
Channel positions                        : Front: L R
Sampling rate                            : 48.0 KHz
Bit depth                                : 16 bits
Compression mode                         : Lossy
Stream size                              : 72.9 MiB (11%)
Alignment                                : Aligned on interleaves
Interleave, duration                     : 32 ms (0.80 video frame)
Ice Age 4 Continental Drift 2012/Ice Age 4 Continental Drift 2012.rar 722.009 MB
Ice Age 4 Continental Drift 2012/Ice Age 4 Continenatal Drift 2012.txt 2.961 KB
Gathering some info...

Register and log in Isohunt and see no captcha anymore!

4000 symbols left
Hash a50a933723d9d095c3a38c3dd69d34d2627136ab

Related torrents for "Ice Age 4 Continental Drift 2012"

Torrent search:

2012