Maria Gad-Multishow ao Vivo[Eac Flac Cue][TntVillage]

Size 429.752 MB   26 seeders     Added 2012-07-16 02:38:00

Stream torrent
Starting‥ You need BitLord! Get it from BitLord.com
To download or stream you need BitLord. Visit them at BitLord.com
[CENTER][img]image[/img]  \r\n\r\n[img]image[/img]\r\n\r\n[img]image[/img]\r\n\r\n[align=center][b][SIZE=8][color=black]\r\nArtist: Maria Gadú\r\nTitle Of Album: Multishow Ao Vivo\r\nEtichetta: SOM LIVRE\r\nPubblicazione: CD 2010\r\nGenre: MPB\r\nPlaying Time: 65,16\r\nTotal Size: 409,82 MB\r\n\r\nQuality: FLAC+Cue+Log+Info+Cover[Front + Back + CD]\r\nBitrate: Lossless\r\n\r\n[img]image[/img]\r\n\r\n\r\n1. Encontro [03.36]\r\n2. Bela Flor [03.28]\r\n3. Shimbalaiê [03.36]\r\n4. Tudo Diferente [04.20]\r\n5. Dona Cila [03.41]\r\n6. Lanterna dos Afogados [03.37]\r\n7. A História de Lily Brawn [04.47]\r\n8. Altar Particular [03.21]\r\n9. Linda Rosa [04.00]\r\n10. Laranja [03.00]\r\n11. Filosofia [02.41]\r\n12. Lounge [04.16]\r\n13. Trem das Onze [03.11]\r\n14. Quase sem Querer [03.26]\r\n15. Escudos [03.39]\r\n16. Who Know [05.16]\r\n17. Ne me Quite Pas [05.11]\r\n[/SIZE][/b][/color][/align]  \r\n \r\n[img]image[/img]\r\n\r\n\r\nShow held in July 2010 at Credicard Hall (SP), where the singer presented the repertoire that took over Brazil during a year of touring, with new songs and present successes in his first album.\r\nAmong the new songs before they are present only at their shows, like Flashlight, unforgettable voice of Paralamas do Sucesso, Train of Eleven of Adoniran Barbosa, and almost by accident, of Dado Villa-Lobos, Renato Russo and Renato Rocha. There are also international content, as the cover of Who Kne ¿, pop singer Pink's and a combination of You Know I'm Good, Amy Winehouse, with music Philosophy, Noel Rosa and Andrew Son. \r\n\r\n[img]image[/img]\r\n\r\n\r\nExact Audio Copy V1.0 beta 3 from 29. August 2011\r\n\r\nEAC extraction logfile from 8. June 2012, 23:08\r\n\r\nMaria Gadú / Maria Gadú-Multishow ao Vivo\r\n\r\nUsed drive  : HL-DT-STDVDRAM GSA-T40N   Adapter: 0  ID: 0\r\n\r\nRead mode               : Secure\r\nUtilize accurate stream : Yes\r\nDefeat audio cache      : Yes\r\nMake use of C2 pointers : No\r\n\r\nRead offset correction                      : 667\r\nOverread into Lead-In and Lead-Out          : No\r\nFill up missing offset samples with silence : Yes\r\nDelete leading and trailing silent blocks   : No\r\nNull samples used in CRC calculations       : Yes\r\nUsed interface                              : Native Win32 interface for Win NT & 2000\r\nGap handling                                : Appended to previous track\r\n\r\nUsed output format              : User Defined Encoder\r\nSelected bitrate                : 896 kBit/s\r\nQuality                         : High\r\nAdd ID3 tag                     : No\r\nCommand line compressor         : C:\\Program Files\\Exact Audio Copy\\FLAC\\FLAC.EXE\r\nAdditional command line options : -8 -V -T \"ARTIST=%artist%\" -T \"TITLE=%title%\" -T \"ALBUM=%albumtitle%\" -T \"DATE=%year%\" -T \"TRACKNUMBER=%tracknr%\" -T \"GENRE=%genre%\" -T \"COMMENT=%comment%\" -T \"BAND=%albuminterpret%\" -T \"ALBUMARTIST=%albuminterpret%\" -T \"COMPOSER=%composer%\" %haslyrics%--tag-from-file=LYRICS=\"%lyricsfile%\"%haslyrics% -T \"DISCNUMBER=%cdnumber%\" -T \"TOTALDISCS=%totalcds%\" -T \"TOTALTRACKS=%numtracks%\" %hascover%--picture=\"%coverfile%\"%hascover% %source% -o %dest%\r\n\r\n\r\nTOC of the extracted CD\r\n\r\n     Track |   Start  |  Length  | Start sector | End sector \r\n    ---------------------------------------------------------\r\n        1  |  0:00.00 |  3:36.29 |         0    |    16228   \r\n        2  |  3:36.29 |  3:28.71 |     16229    |    31899   \r\n        3  |  7:05.25 |  3:36.28 |     31900    |    48127   \r\n        4  | 10:41.53 |  4:20.65 |     48128    |    67692   \r\n        5  | 15:02.43 |  3:41.04 |     67693    |    84271   \r\n        6  | 18:43.47 |  3:37.26 |     84272    |   100572   \r\n        7  | 22:20.73 |  4:47.68 |    100573    |   122165   \r\n        8  | 27:08.66 |  3:21.56 |    122166    |   137296   \r\n        9  | 30:30.47 |  4:00.71 |    137297    |   155367   \r\n       10  | 34:31.43 |  3:00.61 |    155368    |   168928   \r\n       11  | 37:32.29 |  2:41.23 |    168929    |   181026   \r\n       12  | 40:13.52 |  4:16.56 |    181027    |   200282   \r\n       13  | 44:30.33 |  3:11.37 |    200283    |   214644   \r\n       14  | 47:41.70 |  3:26.47 |    214645    |   230141   \r\n       15  | 51:08.42 |  3:39.64 |    230142    |   246630   \r\n       16  | 54:48.31 |  5:16.50 |    246631    |   270380   \r\n       17  | 60:05.06 |  5:11.56 |    270381    |   293761   \r\n\r\n\r\nTrack  1\r\n\r\n     Filename H:\\MY EAC[.FLAC]\\Maria Gadú-Multishow ao Vivo\\(1) Encontro - Maria Gadú.flac\r\n\r\n     Pre-gap length  0:00:02.00\r\n\r\n     Peak level 97.6 %\r\n     Extraction speed 1.8 X\r\n     Track quality 100.0 %\r\n     Test CRC FA600347\r\n     Copy CRC FA600347\r\n     Accurately ripped (confidence 1)  [44B08D4C]  (AR v2)\r\n     Copy OK\r\n\r\nTrack  2\r\n\r\n     Filename H:\\MY EAC[.FLAC]\\Maria Gadú-Multishow ao Vivo\\(2) Bela Flor - Maria Gadú.flac\r\n\r\n     Peak level 97.6 %\r\n     Extraction speed 2.3 X\r\n     Track quality 100.0 %\r\n     Test CRC 087BA4BC\r\n     Copy CRC 087BA4BC\r\n     Accurately ripped (confidence 1)  [045C4601]  (AR v2)\r\n     Copy OK\r\n\r\nTrack  3\r\n\r\n     Filename H:\\MY EAC[.FLAC]\\Maria Gadú-Multishow ao Vivo\\(3) Shimbalaiê - Maria Gadú.flac\r\n\r\n     Peak level 97.6 %\r\n     Extraction speed 2.4 X\r\n     Track quality 100.0 %\r\n     Test CRC B2CDAC1D\r\n     Copy CRC B2CDAC1D\r\n     Accurately ripped (confidence 1)  [094EB28D]  (AR v2)\r\n     Copy OK\r\n\r\nTrack  4\r\n\r\n     Filename H:\\MY EAC[.FLAC]\\Maria Gadú-Multishow ao Vivo\\(4) Tudo Diferente - Maria Gadú.flac\r\n\r\n     Peak level 97.6 %\r\n     Extraction speed 2.7 X\r\n     Track quality 100.0 %\r\n     Test CRC 8BC6D64E\r\n     Copy CRC 8BC6D64E\r\n     Accurately ripped (confidence 1)  [D998EA38]  (AR v2)\r\n     Copy OK\r\n\r\nTrack  5\r\n\r\n     Filename H:\\MY EAC[.FLAC]\\Maria Gadú-Multishow ao Vivo\\(5) Dona Cila - Maria Gadú.flac\r\n\r\n     Peak level 97.6 %\r\n     Extraction speed 2.8 X\r\n     Track quality 100.0 %\r\n     Test CRC 2554F979\r\n     Copy CRC 2554F979\r\n     Accurately ripped (confidence 1)  [6269B1FD]  (AR v2)\r\n     Copy OK\r\n\r\nTrack  6\r\n\r\n     Filename H:\\MY EAC[.FLAC]\\Maria Gadú-Multishow ao Vivo\\(6) Lanterna dos Afogados - Maria Gadú.flac\r\n\r\n     Peak level 97.6 %\r\n     Extraction speed 2.8 X\r\n     Track quality 100.0 %\r\n     Test CRC A9E237D9\r\n     Copy CRC A9E237D9\r\n     Accurately ripped (confidence 1)  [8CF3148F]  (AR v2)\r\n     Copy OK\r\n\r\nTrack  7\r\n\r\n     Filename H:\\MY EAC[.FLAC]\\Maria Gadú-Multishow ao Vivo\\(7) A História de Lily Brawn - Maria Gadú.flac\r\n\r\n     Peak level 97.6 %\r\n     Extraction speed 3.1 X\r\n     Track quality 100.0 %\r\n     Test CRC CE5DBDC8\r\n     Copy CRC CE5DBDC8\r\n     Accurately ripped (confidence 1)  [F3D28E10]  (AR v2)\r\n     Copy OK\r\n\r\nTrack  8\r\n\r\n     Filename H:\\MY EAC[.FLAC]\\Maria Gadú-Multishow ao Vivo\\(8) Altar Particular - Maria Gadú.flac\r\n\r\n     Peak level 97.5 %\r\n     Extraction speed 3.0 X\r\n     Track quality 100.0 %\r\n     Test CRC A7D860E6\r\n     Copy CRC A7D860E6\r\n     Accurately ripped (confidence 1)  [E1E408E3]  (AR v2)\r\n     Copy OK\r\n\r\nTrack  9\r\n\r\n     Filename H:\\MY EAC[.FLAC]\\Maria Gadú-Multishow ao Vivo\\(9) Linda Rosa - Maria Gadú.flac\r\n\r\n     Peak level 97.6 %\r\n     Extraction speed 3.3 X\r\n     Track quality 100.0 %\r\n     Test CRC C8D826E5\r\n     Copy CRC C8D826E5\r\n     Accurately ripped (confidence 1)  [206AB559]  (AR v2)\r\n     Copy OK\r\n\r\nTrack 10\r\n\r\n     Filename H:\\MY EAC[.FLAC]\\Maria Gadú-Multishow ao Vivo\\(10) Laranja - Maria Gadú.flac\r\n\r\n     Peak level 97.6 %\r\n     Extraction speed 3.2 X\r\n     Track quality 100.0 %\r\n     Test CRC E2131409\r\n     Copy CRC E2131409\r\n     Accurately ripped (confidence 1)  [6BC072A5]  (AR v2)\r\n     Copy OK\r\n\r\nTrack 11\r\n\r\n     Filename H:\\MY EAC[.FLAC]\\Maria Gadú-Multishow ao Vivo\\(11) Filosofia - Maria Gadú.flac\r\n\r\n     Peak level 97.6 %\r\n     Extraction speed 2.8 X\r\n     Track quality 99.9 %\r\n     Test CRC A43ABC1B\r\n     Copy CRC A43ABC1B\r\n     Accurately ripped (confidence 1)  [98348ED0]  (AR v2)\r\n     Copy OK\r\n\r\nTrack 12\r\n\r\n     Filename H:\\MY EAC[.FLAC]\\Maria Gadú-Multishow ao Vivo\\(12) Lounge - Maria Gadú.flac\r\n\r\n     Peak level 97.4 %\r\n     Extraction speed 3.6 X\r\n     Track quality 100.0 %\r\n     Test CRC 42846D51\r\n     Copy CRC 42846D51\r\n     Accurately ripped (confidence 1)  [140A0488]  (AR v2)\r\n     Copy OK\r\n\r\nTrack 13\r\n\r\n     Filename H:\\MY EAC[.FLAC]\\Maria Gadú-Multishow ao Vivo\\(13) Trem das Onze - Maria Gadú.flac\r\n\r\n     Peak level 97.6 %\r\n     Extraction speed 3.2 X\r\n     Track quality 100.0 %\r\n     Test CRC 4502A9AE\r\n     Copy CRC 4502A9AE\r\n     Accurately ripped (confidence 1)  [519960A9]  (AR v2)\r\n     Copy OK\r\n\r\nTrack 14\r\n\r\n     Filename H:\\MY EAC[.FLAC]\\Maria Gadú-Multishow ao Vivo\\(14) Quase sem Querer - Maria Gadú.flac\r\n\r\n     Peak level 97.6 %\r\n     Extraction speed 3.7 X\r\n     Track quality 100.0 %\r\n     Test CRC C87BEF23\r\n     Copy CRC C87BEF23\r\n     Accurately ripped (confidence 1)  [07890757]  (AR v2)\r\n     Copy OK\r\n\r\nTrack 15\r\n\r\n     Filename H:\\MY EAC[.FLAC]\\Maria Gadú-Multishow ao Vivo\\(15) Escudos - Maria Gadú.flac\r\n\r\n     Peak level 97.6 %\r\n     Extraction speed 3.3 X\r\n     Track quality 100.0 %\r\n     Test CRC B9C7A1C2\r\n     Copy CRC B9C7A1C2\r\n     Accurately ripped (confidence 1)  [D247BA50]  (AR v2)\r\n     Copy OK\r\n\r\nTrack 16\r\n\r\n     Filename H:\\MY EAC[.FLAC]\\Maria Gadú-Multishow ao Vivo\\(16) Who Know - Maria Gadú.flac\r\n\r\n     Peak level 97.6 %\r\n     Extraction speed 2.3 X\r\n     Track quality 100.0 %\r\n     Test CRC 579CB1E3\r\n     Copy CRC 579CB1E3\r\n     Accurately ripped (confidence 1)  [964AAEC6]  (AR v2)\r\n     Copy OK\r\n\r\nTrack 17\r\n\r\n     Filename H:\\MY EAC[.FLAC]\\Maria Gadú-Multishow ao Vivo\\(17) Ne me Quite Pas - Maria Gadú.flac\r\n\r\n     Peak level 97.6 %\r\n     Extraction speed 2.2 X\r\n     Track quality 99.9 %\r\n     Test CRC 501838EF\r\n     Copy CRC 501838EF\r\n     Accurately ripped (confidence 1)  [81DE5CBF]  (AR v2)\r\n     Copy OK\r\n\r\n\r\nAll tracks accurately ripped\r\n\r\nNo errors occurred\r\n\r\nEnd of status report\r\n\r\n==== Log checksum B482B5065BB7AAEF5BF29A66DE1CD05DABB76116ED233E7E0DCB1045E8FC4FD4 ====\r\n\r\n[img]image[/img]\r\n\r\n[img]image[/img][/CENTER]
(1) Encontro - Maria Gadú.flac 25.581 MB
(10) Laranja - Maria Gadú.flac 21.463 MB
(11) Filosofia - Maria Gadú.flac 18.507 MB
Gathering some info...

Register and log in Isohunt and see no captcha anymore!

4000 symbols left
Hash 1E8A4A627993E09E7D97B80D4D56C5D51B26D42F