Batmunk 2012 DVDRip Xvid UnKnOwN

Size 806.725 MB   0 seeders     Added 2012-07-16 02:46:15

Stream torrent
Starting‥ You need BitLord! Get it from BitLord.com
To download or stream you need BitLord. Visit them at BitLord.com
Looking for fast download speeds come join http://dream-torrents.com for all the latest releases, with friendly staff online radio and games and much much more.\r\n-\r\n-\r\n.\r\n\r\n\r\n\r\nEncoded By .......:UnKnOwN\r\nRuntime ..........:1:06\r\nIMDb URL .........: http://www.cduniverse.com/productinfo.asp?pid=8740307\r\nLanguage .........:English\r\nFile Size ........:765mb\r\nRelease Date ......... 2012\r\nSource ......... Deez Nutz\r\nFile Type ......... Single AVI\r\nPS3 Compatible ....... Go For It\r\nGenre ......... Kids/Animation\r\nVideo\r\nID: 0\r\nFormat: MPEG-4 Visual\r\nFormat profile: Advanced Simple@L5\r\nFormat settings, BVOP: Yes\r\nFormat settings, QPel: No\r\nFormat settings, GMC: No warppoints\r\nFormat settings, Matrix: Custom\r\nCodec ID: XVID\r\nCodec ID/Hint: XviD\r\nDuration: 1h 06mn\r\nBit rate: 1501kbps\r\nWidth: 680pixels\r\nHeight: 440pixels\r\nDisplay aspect ratio: $:3\r\nFrame rate: 23.997fps\r\nColor space: YUV\r\nChroma subsampling: 4:2:0\r\nBit depth: 8 bits\r\nScan type: Progressive\r\nBits/(Pixel*Frame): 0.234\r\nStream size: 892 MiB (86%)\r\nWriting library: XviD 1.2.1 (UTC 2008-12-04)\r\nAudio\r\nID: 1\r\nFormat: MP3\r\nFormat/Info: MPEG\r\nMode extension: CM (complete main)\r\nCodec ID: 2000\r\nDuration: 1h 06mn\r\nBit rate mode: Constant\r\nBit rate: 128kbps\r\nChannel(s): 2channels\r\nChannel positions: Front: L R\r\nSampling rate: 48.0 KHz\r\nBit depth: 16 bits\r\nStream size: 302 MiB\r\nAlignment: Aligned on interleaves\r\nInterleave, duration: 42 ms (1.00 video frame)\r\nInterleave, preload duration: 512 ms\r\n\r\n\r\nAlvin and the Chipmunks put a high-flying new spin on one of the most anticipated films of the year. Batmunk is a thrilling adventure that'll keep you on the edge of your seat...with laughter! Simon (in the most heroic role of his long, brainy career) plays the Caped Crime fighter to mischievous Alvin's hilariously villainous Jokester an arch criminal whose cult of crooked clowns has been stealing all the toys in the city. When the thieves go after the greatest toy in the world, Batmunk decides to teach the bad guys that crime doesn't play!
UnknOwN.nfo 10.649 KB
aatcbUnKnOwN.avi 806.715 MB
Gathering some info...

Register and log in Isohunt and see no captcha anymore!

4000 symbols left
Hash 5375821DD480022532759886A86639725792A3D8