Madagascar 3

Size 724.742 MB   0 seeders     Added 2012-07-16 04:14:52

To download or stream you need BitLord. Visit them at BitLord.com
[IMG]image[/IMG]



Alex, Marty, Gloria and Melman are still fighting to get home to their beloved Big Apple. Their journey takes them through 

Europe where they find the perfect cover: a traveling circus, which they reinvent - Madagascar style.

http://www.imdb.com/title/tt1277953/

Source -   Spanish  Thanks

Complete name                            : Madagascar.3.(Sexy.and.I.Know.It.Edition).TS.XViD.AC3-ADTRG.avi
Format                                   : AVI
Format/Info                              : Audio Video Interleave
File size                                : 691 MiB
Duration                                 : 1h 22mn
Overall bit rate                         : 1 177 Kbps
Writing application                      : Lavf52.61.0
Writing library                          : VirtualDub build 34703/release

Video
ID                                       : 0
Format                                   : MPEG-4 Visual
Format profile                           : Advanced Simple@L5
Format settings, BVOP                    : 2
Format settings, QPel                    : No
Format settings, GMC                     : No warppoints
Format settings, Matrix                  : Default (H.263)
Muxing mode                              : Packed bitstream
Codec ID                                 : XVID
Codec ID/Hint                            : XviD
Duration                                 : 1h 22mn
Bit rate                                 : 1 101 Kbps
Width                                    : 640 pixels
Height                                   : 336 pixels
Display aspect ratio                     : 1.905
Frame rate                               : 29.970 fps
Color space                              : YUV
Chroma subsampling                       : 4:2:0
Bit depth                                : 8 bits
Scan type                                : Progressive
Compression mode                         : Lossy
Bits/(Pixel*Frame)                       : 0.171
Stream size                              : 647 MiB (94%)
Writing library                          : XviD 64

Audio
ID                                       : 1
Format                                   : MPEG Audio
Format version                           : Version 1
Format profile                           : Layer 3
Codec ID                                 : 55
Codec ID/Hint                            : MP3
Duration                                 : 1h 22mn
Bit rate mode                            : Constant
Bit rate                                 : 64.0 Kbps
Channel(s)                               : 2 channels
Sampling rate                            : 44.1 KHz
Compression mode                         : Lossy
Stream size                              : 37.6 MiB (5%)
Alignment                                : Split accross interleaves
Interleave, duration                     : 33 ms (1.00 video frame)
Interleave, preload duration             : 500 ms
Madagascar 3 (Sexy and I Know It Edition) TS.XViD/Madagascar 3 (Sexy and I Know It Edition) TS.XViD.rar 724.739 MB
Madagascar 3 (Sexy and I Know It Edition) TS.XViD/Madagascar 3 (Sexy and I Know It Edition) TS.XViD .txt 2.968 KB
Gathering some info...

Register and log in Isohunt and see no captcha anymore!

4000 symbols left
Hash e2667de4eeaea06d1515d20a3fda37c79bf109ce

Related torrents for "Madagascar 3"