Snow White and the Huntsman 2012 TS XViD

Size 1.488 GB   0 seeders     Added 2012-07-16 21:20:55

To download or stream you need BitLord. Visit them at BitLord.com
[IMG]image?1?8830[/IMG]
[IMG]image[/IMG]


Snow White and the Huntsman (2012)
12A 127 min  -  Action | Adventure | Drama  -   30 May 2012 (UK)
IMDB Rating 6.7
Kristen Stewart ... Snow White
Chris Hemsworth ... The Huntsman
Charlize Theron ... Ravenna
Sam Claflin ... William
Sam Spruell ... Finn
Ian McShane ... Beith
Bob Hoskins ... Muir
Ray Winstone ... Gort
Nick Frost ... Nion
Eddie Marsan ... Duir
Toby Jones ... Coll
Johnny Harris ... Quert
Brian Gleeson ... Gus
Vincent Regan ... Duke Hammond
Noah Huntley ... King Magnus
Liberty Ross ... Queen Eleanor
Christopher Obi ... Mirror Man
Lily Cole ... Greta
Rachael Stirling ... Anna
Source - Cam German Thanks
Source - LiNe - Dragon Exclusive Thanks, Awesome work bro

Complete name: Snow.White.and.the.Huntsman.2012.TS.XViD.AC3-ADTRG.avi
Format: AVI
Format/Info: Audio Video Interleave
File size: 1.39 GiB
Duration: 1h 57mn
Overall bit rate: 1 693 Kbps
Writing application: Nandub v1.0rc2
Writing library: VirtualDub build 34703/release

Video
ID: 0
Format: MPEG-4 Visual
Codec ID: XVID
Bit rate: 1 489 Kbps
Width: 720 pixels
Height: 320 pixels
Display aspect ratio: 2.25:1
Frame rate: 29.970 fps
Stream size: 1.22 GiB (88%)

Audio
ID: 1
Format: AC-3
Bit rate: 192 Kbps
Channel(s): 2 channels
Channel positions: Front: L R
Sampling rate: 48.0 KHz
Stream size: 161 MiB (11%)
Snow White and the Huntsman 2012 TS XViD/Snow White and the Huntsman 2012 TS XViD.rar 1.488 GB
Snow White and the Huntsman 2012 TS XViD/Snow White and the Huntsman (2012).txt 1.337 KB
Gathering some info...

Register and log in Isohunt and see no captcha anymore!

4000 symbols left
Hash ec1b22a1f1c0de1f9af317dd3be3066f9c07dc85

Related torrents for "Snow White and the Huntsman 2012 TS XViD"

Torrent search:

2012