imdb
rating

6.3
Young Adult

Young Adult (2011)

Comedy, Drama, Romance

Full description
quality   dvdrip dvd cam

Young Adult 2011 DVDrip English Klam

Size 1.314 GB   0 seeders     Added 2012-07-18 02:50:43

Stream torrent
Starting‥ You need BitLord! Get it from BitLord.com
To download or stream you need BitLord. Visit them at BitLord.com
[img] image[/img]\r\n\r\nWith: Charlize Theron, Patton Oswalt and Patrick Wilson\r\n\r\nNiet lang na haar echtscheiding keert Mavis Gary (Charlize Theron), een fictieschrijfster, terug naar haar huis in een klein dorpje ergens in Minnesota. Ze wil de hoogtijdagen van weleer herleven en is van plan om de relatie met haar ex-vriendje (Patrick Wilson) van toen op te rakelen. Deze laatste is nu echter getrouwd en heeft kinderen. De thuiskomst loopt niet zoals gepland, en dus vormt Mavis een ongewone band met een andere ex-klasgenoot (Patton Oswalt) die de middelbare school ook niet helemaal achter zich heeft kunnen laten.\r\n\r\nSoon after her divorce, a fiction writer returns to her home in small-town Minnesota, looking to rekindle a romance with her ex-boyfriend, who is now happily married and has a newborn daughter. \r\n\r\nhttp://www.imdb.com/title/tt1625346\r\n\r\n[COLOR=#3300FF]------------------------ Dutch Friends ------------------------\r\n---------------------------------------------------------------\r\n- Bezoek ook eens mijn vrienden op:  http://www.Film-Test.nl --\r\n----- voor mijn Nederlandse Sync. ondertitels ---- en meer ----\r\n------- http://www.Film-Test.nl ---- voor Films en meer -------\r\n---------------------------------------------------------------[/COLOR]\r\n\r\nGeneral:\r\n\r\nComplete name                    : Young Adult\\Young Adult.avi\r\nFormat                           : AVI\r\nFormat/Info                      : Audio Video Interleave\r\nFile size                        : 1.22 GiB\r\nDuration                         : 1h 33mn\r\nOverall bit rate                 : 1 871 Kbps\r\n\r\nVideo:\r\n\r\nFormat                           : MPEG-4 Visual\r\nFormat profile                   : Simple@L3\r\nFormat settings, BVOP            : No\r\nFormat settings, QPel            : No\r\nFormat settings, GMC             : No warppoints\r\nFormat settings, Matrix          : Default (H.263)\r\nCodec ID                         : XVID\r\nCodec ID/Hint                    : XviD\r\nDuration                         : 1h 33mn\r\nBit rate                         : 1 412 Kbps\r\nWidth                            : 652 pixels\r\nHeight                           : 352 pixels\r\nDisplay aspect ratio             : 1.852\r\nFrame rate                       : 23.976 fps\r\nColor space                      : YUV\r\nChroma subsampling               : 4:2:0\r\nBit depth                        : 8 bits\r\nScan type                        : Progressive\r\nCompression mode                 : Lossy\r\nBits/(Pixel*Frame)               : 0.257\r\nStream size                      : 946 MiB (75%)\r\nWriting library                  : XviD 1.1.2 (UTC 2006-11-01)\r\n\r\nAudio:\r\n\r\nFormat                           : AC-3\r\nFormat/Info                      : Audio Coding 3\r\nMode extension                   : CM (complete main)\r\nCodec ID                         : 2000\r\nDuration                         : 1h 33mn\r\nBit rate mode                    : Constant\r\nBit rate                         : 448 Kbps\r\nChannel(s)                       : 6 channels\r\nChannel positions                : Front: L C R, Side: L R, LFE\r\nSampling rate                    : 48.0 KHz\r\nBit depth                        : 16 bits\r\nCompression mode                 : Lossy\r\nStream size                      : 300 MiB (24%)\r\nAlignment                        : Aligned on interleaves\r\nInterleave, duration             : 32 ms (0.77 video frame)\r\nInterleave, preload duration     : 288 ms
Cover/Young Adult.jpg 49.794 KB
Cover/www.Film-Test.nl.JPG 34.175 KB
Young Adult.avi 1.314 GB
Gathering some info...

Register and log in Isohunt and see no captcha anymore!

4000 symbols left
Hash 6C6D0F966D645CD52872D0FE75DC745783A0820F

Related torrents for "Young Adult 2011 DVDrip English Klam"

Torrent search:

dvdrip english 2011