imdb
rating

7.2
King Kong

King Kong (2005)

Action, Adventure, Drama

Full description

King Kong 2005 DVDrip English Skandale

Size 2.733 GB   0 seeders     Added 2012-07-19 02:50:22

Stream torrent
Starting‥ You need BitLord! Get it from 1BitLord.com
To download or stream you need BitLord. Visit them at BitLord.com
King Kong 2005 DVDrip English Skandale\r\n\r\n[img] image [/img]\r\n\r\nmet Naomi Watts, Jack Black en Adrien Brody\r\n\r\nDe jaren '30. Een groep filmmakers reist af naar een legendarisch eiland om een film op te nemen. Eenmaal aangekomen blijken alle geheimzinnige verhalen over het eiland op waarheid berust: het eiland wordt bevolkt door mysterieuze inboorlingen en vele gigantische beesten. Hoofdrolspeelster Ann Darrow wordt de gevangene van één van deze beesten: de 8 meter grote gorilla Kong. De filmcrew trekt er vervolgens op uit om haar te redden.\r\n\r\nIn 1933 New York, an overly ambitious movie producer coerces his cast and hired ship crew to travel to mysterious Skull Island, where they encounter Kong, a giant ape who is immediately smitten with leading lady Ann Darrow.\r\n\r\nhttp://www.imdb.com/title/tt0360717/\r\n\r\n\r\n------------------------ Dutch Friends ------------------------\r\n---------------------------------------------------------------\r\n- Bezoek ook eens mijn vrienden op:  http://www.Film-Test.nl --\r\n----- voor mijn Nederlandse Sync. ondertitels ---- en meer ----\r\n------- http://www.Film-Test.nl ---- voor Films en meer -------\r\n---------------------------------------------------------------\r\n\r\nGeneral\r\nComplete name                            : King Kong 2005.avi\r\nFormat                                   : AVI\r\nFormat/Info                              : Audio Video Interleave\r\nFile size                                : 2.54 GiB\r\nDuration                                 : 2h 59mn\r\nOverall bit rate                         : 2 028 Kbps\r\n\r\nVideo\r\nID                                       : 0\r\nFormat                                   : MPEG-4 Visual\r\nFormat profile                           : Simple@L3\r\nFormat settings, BVOP                    : No\r\nFormat settings, QPel                    : No\r\nFormat settings, GMC                     : No warppoints\r\nFormat settings, Matrix                  : Default (H.263)\r\nCodec ID                                 : XVID\r\nCodec ID/Hint                            : XviD\r\nDuration                                 : 2h 59mn\r\nSource duration                          : 2h 59mn\r\nBit rate                                 : 1 634 Kbps\r\nWidth                                    : 720 pixels\r\nHeight                                   : 304 pixels\r\nDisplay aspect ratio                     : 2.35:1\r\nFrame rate                               : 25.000 fps\r\nColor space                              : YUV\r\nChroma subsampling                       : 4:2:0\r\nBit depth                                : 8 bits\r\nScan type                                : Progressive\r\nCompression mode                         : Lossy\r\nBits/(Pixel*Frame)                       : 0.299\r\nStream size                              : 2.05 GiB (81%)\r\nWriting library                          : XviD 1.1.2 (UTC 2006-11-01)\r\n\r\nAudio\r\nID                                       : 1\r\nFormat                                   : AC-3\r\nFormat/Info                              : Audio Coding 3\r\nMode extension                           : CM (complete main)\r\nFormat settings, Endianness              : Big\r\nCodec ID                                 : 2000\r\nDuration                                 : 2h 59mn\r\nBit rate mode                            : Constant\r\nBit rate                                 : 384 Kbps\r\nChannel(s)                               : 6 channels\r\nChannel positions                        : Front: L C R, Side: L R, LFE\r\nSampling rate                            : 48.0 KHz\r\nBit depth                                : 16 bits\r\nCompression mode                         : Lossy\r\nStream size                              : 493 MiB (19%)\r\nAlignment                                : Aligned on interleaves\r\nInterleave, duration                     : 32 ms (0.80 video frame)\r\nInterleave, preload duration             : 1056 ms
King Kong 2005.avi 2.733 GB
Cover/king-kong-2005-dutch-r2-front-cover-46450.jpg 74.349 KB
flyer.jpg 33.678 KB
Gathering some info...

Register and log in Isohunt and see no captcha anymore!

4000 symbols left
Hash D9043ABFD255A5BC90CC9A167BA1C102B3154252

Related torrents for "King Kong 2005 DVDrip English Skandale"

Torrent search:

dvdrip english 2005