Madea's.Witness.Protection.2012.CAM.XViD-26k

Size 699.822 MB   0 seeders     Added 2012-07-20 00:06:33

To download or stream you need BitLord. Visit them at BitLord.com
[img]image[/img]

[code]

Madea's.Witness.Protection.2012.CAM.XViD-26k


http://www.imdb.com/title/tt2215285/


Plot:
A Wall Street investment banker who has been set up as the linchpin of his company's mob-backed 
Ponzi scheme is relocated with his family to Aunt Madea's southern home.


Sources - VIDEO: HustleHard ....Thanks :P
          AUDIO: HustleHard ....Thanks :P



ormat                                   : AVI
Format/Info                              : Audio Video Interleave
File size                                : 676 MiB
Duration                                 : 1h 46mn
Overall bit rate                         : 884 Kbps
Writing library                          : VirtualDub build 32839/release

Video
ID                                       : 0
Format                                   : MPEG-4 Visual
Format profile                           : Advanced Simple@L5
Format settings, BVOP                    : 2
Format settings, QPel                    : Yes
Format settings, GMC                     : 3 warppoints
Format settings, Matrix                  : Default (H.263)
Muxing mode                              : Packed bitstream
Codec ID                                 : XVID
Codec ID/Hint                            : XviD
Duration                                 : 1h 46mn
Bit rate                                 : 745 Kbps
Width                                    : 672 pixels
Height                                   : 336 pixels
Display aspect ratio                     : 2.000
Frame rate                               : 29.970 fps
Color space                              : YUV
Chroma subsampling                       : 4:2:0
Bit depth                                : 8 bits
Scan type                                : Progressive
Compression mode                         : Lossy
Bits/(Pixel*Frame)                       : 0.110
Stream size                              : 569 MiB (84%)
Writing library                          : XviD 1.2.1 (UTC 2008-12-04)

Audio
ID                                       : 1
Format                                   : MPEG Audio
Format version                           : Version 1
Format profile                           : Layer 3
Mode                                     : Joint stereo
Mode extension                           : MS Stereo
Codec ID                                 : 55
Codec ID/Hint                            : MP3
Duration                                 : 1h 46mn
Bit rate mode                            : Constant
Bit rate                                 : 128 Kbps
Channel(s)                               : 2 channels
Sampling rate                            : 48.0 KHz
Compression mode                         : Lossy
Stream size                              : 97.9 MiB (14%)
Alignment                                : Split accross interleaves
Interleave, duration                     : 33 ms (1.00 video frame)
Writing library                          : LAME3.98r
Encoding settings                        : -m j -V 4 -q 3 -lowpass 17 -b 128





Notes -

Source was nice.. crop, resize, denoise, and saturation adjustment, gamma, contrast and sharpend it up sum
then took the audio and boosted it up sum ande cleaned sum hiss out of it and just muxed it back to the encode
enjoy.. prob only source for this to come out....

Enjoy!!

[/code]

Screenshots:
[img]image[/img]
[img]image[/img]
[img]image[/img]
[img]image[/img]
[img]image[/img]

Greetz:
Xtreme Encode|FYA|ILLUMANTI|CM8|RX|VISION|HDSCENE|xTriLL|DTRG|CRYS|REMIXHD|BIDA|RX|REFILL|INSPiRAL|SIC|
|HOPE|Anonymous|GooN|NOIR|Blackjesus|Gabroo Punjab Deh|UNiQUE

To all the people who have helped me  you know who you are

Anything to offer email us @: 26k@hushmail.me
Madea's.Witness.Protection.2012.CAM.XViD-26k.rar 699.822 MB
Gathering some info...

Register and log in Isohunt and see no captcha anymore!

4000 symbols left
Hash 53964bb1ebea73dd55eec25767d2e2ef3b85dfa1