imdb
rating

6.7
Ice Age: Continental Drift

Ice Age: Continental Drift (2012)

Adventure, Animation, Comedy, Family

Full description
quality   dvdrip x264 hd bd screener dvd

Ice Age Continental Drift 2012.BDRip XviD AC3~AsA

Size 808.15 MB   0 seeders     Added 2012-07-21 19:41:38

Stream torrent
Starting‥ You need BitLord! Get it from 1BitLord.com
To download or stream you need BitLord. Visit them at BitLord.com
Ice Age: Continental Drift (2012)

-------------------------------------------------------------------
Please share....Dont hit and run...Seed it back at least once.

Of course, if you want to seed it back more than once, that would be ok too :)
-------------------------------------------------------------------    

QUALITY:  PERFECT 10/10

All details are here:

Format  | AVI           Language | ENGLISH  
Source  | DVD PAL       Subs     | NONE

QUALITY:  PERFECT 10/10

- Video
ID                               : 0
Format                           : MPEG-4 Visual
Format profile                   : Advanced Simple@L5
Format settings, BVOP            : Yes
Format settings, QPel            : No
Format settings, GMC             : No warppoints
Format settings, Matrix          : Default (H.263)
Muxing mode                      : Packed bitstream
Codec ID                         : XVID
Codec ID/Hint                    : XviD
Bit rate                         : 1 345 Kbps
Width                            : 720 pixels
Height                           : 314 pixels
Display aspect ratio             : 2.25:1
Frame rate                       : 29.970 fps
Color space                      : YUV
Chroma subsampling               : 4:2:0
Bit depth                        : 8 bits
Scan type                        : Progressive
Compression mode                 : Lossy
Bits/(Pixel*Frame)               : 0.198
Stream size                      : 1.19 GiB (87%)
Writing library                  : XviD 1.1.0 (UTC 2005-11-22)

- Audio
ID                               : 1
Format                           : AC-3
Format/Info                      : Audio Coding 3
Mode extension                   : CM (complete main)
Codec ID                         : 2000
Bit rate mode                    : Constant
Bit rate                         : 192 Kbps
Channel(s)                       : 2 channels
Channel positions                : Front: L R
Sampling rate                    : 48.0 KHz
Bit depth                        : 16 bits
Compression mode                 : Lossy
Stream size                      : 175 MiB (12%)
Alignment                        : Aligned on interleaves
Interleave, duration             : 33 ms (1.00 video frame)
Interleave, preload duration     : 512 ms    

- Greets

Greets to | X | Joshua08 | IMAGiNE | PrisM | DiGiTAL iNK |



------------------------------------------------------------------------------------------

GENRE : Animation | Adventure | Comedy 

The Plot :-Manny, Diego, and Sid embark upon another adventure after their continent is set adrift. Using an iceberg as a ship, they encounter sea creatures and battle pirates as they explore a new world.
http://www.imdb.com/title/tt1667889/
------------------------------------------------------------------------------------------
Ice Age Continental Drift 2012.BDRip XviD AC3~AsA/Ice Age Continental Drift 2012.BDRip XviD AC3~AsA.avi 805.156 MB
Ice Age Continental Drift 2012.BDRip XviD AC3~AsA/Sample.avi 2.994 MB
Gathering some info...

Register and log in Isohunt and see no captcha anymore!

4000 symbols left
Hash 509f5dfc8d4eea75f5579730d1578e77f624fa24

Related torrents for "Ice Age Continental Drift 2012.BDRip XviD AC3~AsA"

Torrent search:

2012 bd