imdb
rating

7.0
The Amazing Spider-Man

The Amazing Spider-Man (2012)

Action, Adventure, Fantasy

Full description
quality   hd dvdrip screener x264 fullhd bd

The Amazing Spiderman 2012 TS XViD AC3 Hive-CM8

Size 1.706 GB   0 seeders     Added 2012-07-22 02:57:16

Stream torrent
Starting‥ You need BitLord! Get it from BitLord.com
To download or stream you need BitLord. Visit them at BitLord.com
General\r\n Complete name                            : The.Amazing.Spiderman.2012.TS.XViD.AC3.Hive-CM8.avi\r\n Format                                   : AVI\r\n Format/Info                              : Audio Video Interleave\r\n File size                                : 1.59 GiB\r\n Duration                                 : 2h 3mn\r\n Overall bit rate                         : 1 845 Kbps\r\n Writing library                          : VirtualDub build 34703/release\r\n\r\n Video\r\n ID                                       : 0\r\n Format                                   : MPEG-4 Visual\r\n Format profile                           : Advanced Simple@L5\r\n Format settings, BVOP                    : 2\r\n Format settings, QPel                    : Yes\r\n Format settings, GMC                     : No warppoints\r\n Format settings, Matrix                  : Default (H.263)\r\n Muxing mode                              : Packed bitstream\r\n Codec ID                                 : XVID\r\n Codec ID/Hint                            : XviD\r\n Duration                                 : 2h 3mn\r\n Bit rate                                 : 1 707 Kbps\r\n Width                                    : 720 pixels\r\n Height                                   : 288 pixels\r\n Display aspect ratio                     : 2.500\r\n Frame rate                               : 25.000 fps\r\n Color space                              : YUV\r\n Chroma subsampling                       : 4:2:0\r\n Bit depth                                : 8 bits\r\n Scan type                                : Progressive\r\n Compression mode                         : Lossy\r\n Bits/(Pixel*Frame)                       : 0.329\r\n Stream size                              : 1.47 GiB (93%)\r\n Writing library                          : XviD 1.2.1 (UTC 2008-12-04)\r\n\r\n Audio\r\n ID                                       : 1\r\n Format                                   : AC-3\r\n Format/Info                              : Audio Coding 3\r\n Mode extension                           : CM (complete main)\r\n Format settings, Endianness              : Big\r\n Codec ID                                 : 2000\r\n Duration                                 : 2h 3mn\r\n Bit rate mode                            : Constant\r\n Bit rate                                 : 128 Kbps\r\n Channel(s)                               : 2 channels\r\n Channel positions                        : Front: L R\r\n Sampling rate                            : 48.0 KHz\r\n Bit depth                                : 16 bits\r\n Compression mode                         : Lossy\r\n Stream size                              : 113 MiB (7%)\r\n Alignment                                : Aligned on interleaves\r\n Interleave, duration                     : 40 ms (1.00 video frame)\r\n Interleave, preload duration             : 512 ms\r\n\r\n\r\n Plot:\r\n Peter Parker finds a clue that might help him understand why his parents\r\n disappeared when he was young. His path puts him on a collision course\r\n with Dr. Curt Connors, his father's former partner.\r\n\r\n\r\n Cast:\r\n Andrew Garfield  ...    Spider-Man / Peter Parker\r\n Emma Stone       ...    Gwen Stacy\r\n Rhys Ifans       ...    The Lizard / Dr. Curt Connors\r\n Denis Leary      ...    Captain Stacy
help file.txt 245 B
The.Amazing.Spiderman.2012.TS.XViD.AC3.Hive-CM8.rar 1.706 GB
Gathering some info...

Register and log in Isohunt and see no captcha anymore!

4000 symbols left
Hash C20BD9214241993F9B0FCD952830D5E7DE8315A4

Related torrents for "The Amazing Spiderman 2012 TS XViD AC3 Hive-CM8"

Torrent search:

telesync 2012