imdb
rating

5.8
Women in Trouble

Women in Trouble (2009)

Comedy, Drama

Full description
quality   dvdrip h264 bd dvdr x264 fullhd hd

Women in Trouble

Size 1.144 GB   4 seeders     Added 2012-07-22 02:59:18

Stream torrent
Starting‥ You need BitLord! Get it from BitLord.com
10
To download or stream you need BitLord. Visit them at BitLord.com
[img] image[/img]\r\n\r\nWith: Carla Gugino, Adrianne Palicki and Josh Brolin\r\n\r\nDe film volgt de levens van verschillende vrouwen op een doodnormale dag. Deze vrouwen, waaronder: een pornoster, een stewardess, een masseuse, een barvrouw en een paar call-girls hebben één ding gemeen: ze zijn in gevaar...\r\n\r\nA serpentine day in the life of ten seemingly disparate women: a porn star, a flight attendant, a psychiatrist, a masseuse, a bartender, a pair of call girls, etc. All of them with one crucial thing in common. Trouble. \r\n\r\nhttp://www.imdb.com/title/tt1247704\r\n\r\n[COLOR=#3300FF]------------------------ Dutch Friends ------------------------\r\n---------------------------------------------------------------\r\n- Bezoek ook eens mijn vrienden op:  http://www.Film-Test.nl --\r\n----- voor mijn Nederlandse Sync. ondertitels ---- en meer ----\r\n------- http://www.Film-Test.nl ---- voor Films en meer -------\r\n---------------------------------------------------------------[/COLOR]\r\n\r\nGeneral:\r\n\r\nComplete name                    : Women in Trouble\\Women in Trouble.avi\r\nFormat                           : AVI\r\nFormat/Info                      : Audio Video Interleave\r\nFile size                        : 1.06 GiB\r\nDuration                         : 1h 31mn\r\nOverall bit rate                 : 1 668 Kbps\r\n\r\nVideo:\r\n\r\nFormat                           : MPEG-4 Visual\r\nFormat profile                   : Simple@L3\r\nFormat settings, BVOP            : No\r\nFormat settings, QPel            : No\r\nFormat settings, GMC             : No warppoints\r\nFormat settings, Matrix          : Default (H.263)\r\nCodec ID                         : XVID\r\nCodec ID/Hint                    : XviD\r\nDuration                         : 1h 31mn\r\nBit rate                         : 1 209 Kbps\r\nWidth                            : 652 pixels\r\nHeight                           : 352 pixels\r\nDisplay aspect ratio             : 1.852\r\nFrame rate                       : 25.000 fps\r\nColor space                      : YUV\r\nChroma subsampling               : 4:2:0\r\nBit depth                        : 8 bits\r\nScan type                        : Progressive\r\nCompression mode                 : Lossy\r\nBits/(Pixel*Frame)               : 0.211\r\nStream size                      : 790 MiB (72%)\r\nWriting library                  : XviD 1.1.2 (UTC 2006-11-01)\r\n\r\nAudio:\r\n\r\nFormat                           : AC-3\r\nFormat/Info                      : Audio Coding 3\r\nMode extension                   : CM (complete main)\r\nCodec ID                         : 2000\r\nDuration                         : 1h 31mn\r\nBit rate mode                    : Constant\r\nBit rate                         : 448 Kbps\r\nChannel(s)                       : 6 channels\r\nChannel positions                : Front: L C R, Side: L R, LFE\r\nSampling rate                    : 48.0 KHz\r\nBit depth                        : 16 bits\r\nCompression mode                 : Lossy\r\nStream size                      : 293 MiB (27%)\r\nAlignment                        : Aligned on interleaves\r\nInterleave, duration             : 32 ms (0.80 video frame)\r\nInterleave, preload duration     : 32 ms
Cover/Women in Trouble.jpg 51.895 KB
Cover/www.Film-Test.nl.JPG 34.175 KB
New Dutch Site.txt 117 B
Gathering some info...

Register and log in Isohunt and see no captcha anymore!

4000 symbols left
Hash 9A222B0F96276298C6C7B545AD28002306897D4A

Related torrents for "Women in Trouble"