imdb
rating

7.0
Ted

Ted (2012)

Comedy, Fantasy

Full description
quality   dvdrip bd dvd x264 cam hd

Ted 2012 TS XViD~sC0rp

Size 866.87 MB   0 seeders     Added 2012-07-22 05:07:48

Stream torrent
Starting‥ You need BitLord! Get it from BitLord.com
To download or stream you need BitLord. Visit them at BitLord.com
Ted (2012)\r\n\r\n-------------------------------------------------------------------\r\nPlease share....Dont hit and run...Seed it back at least once.\r\n\r\nOf course, if you want to seed it back more than once, that would be ok too :)\r\n-------------------------------------------------------------------	\r\n\r\nQUALITY:  PERFECT 10/10\r\n\r\nAll details are here: \r\n\r\nFormat  | AVI           Language | ENGLISH  \r\nSource  | DVD PAL       Subs     | NONE \r\n\r\nQUALITY:  PERFECT 10/10\r\n\r\n- Video\r\nID                               : 0\r\nFormat                           : MPEG-4 Visual\r\nFormat profile                   : Advanced Simple@L5\r\nFormat settings, BVOP            : Yes\r\nFormat settings, QPel            : No\r\nFormat settings, GMC             : No warppoints\r\nFormat settings, Matrix          : Default (H.263)\r\nMuxing mode                      : Packed bitstream\r\nCodec ID                         : XVID\r\nCodec ID/Hint                    : XviD\r\nBit rate                         : 1 345 Kbps\r\nWidth                            : 720 pixels\r\nHeight                           : 314 pixels\r\nDisplay aspect ratio             : 2.25:1\r\nFrame rate                       : 29.970 fps\r\nColor space                      : YUV\r\nChroma subsampling               : 4:2:0\r\nBit depth                        : 8 bits\r\nScan type                        : Progressive\r\nCompression mode                 : Lossy\r\nBits/(Pixel*Frame)               : 0.198\r\nStream size                      : 1.19 GiB (87%)\r\nWriting library                  : XviD 1.1.0 (UTC 2005-11-22)\r\n\r\n- Audio\r\nID                               : 1\r\nFormat                           : AC-3\r\nFormat/Info                      : Audio Coding 3\r\nMode extension                   : CM (complete main)\r\nCodec ID                         : 2000\r\nBit rate mode                    : Constant\r\nBit rate                         : 192 Kbps\r\nChannel(s)                       : 2 channels\r\nChannel positions                : Front: L R\r\nSampling rate                    : 48.0 KHz\r\nBit depth                        : 16 bits\r\nCompression mode                 : Lossy\r\nStream size                      : 175 MiB (12%)\r\nAlignment                        : Aligned on interleaves\r\nInterleave, duration             : 33 ms (1.00 video frame)\r\nInterleave, preload duration     : 512 ms	\r\n\r\n- Greets\r\n\r\nGreets to | X | Joshua08 | IMAGiNE | PrisM | DiGiTAL iNK |\r\n\r\n\r\n------------------------------------------------------------------------------------------\r\nGENRE : Comedy | Fantasy\r\n\r\nThe Plot :-As the result of a childhood wish, John Bennett\'s teddy bear, Ted, came to life and has been by John\'s side ever since - a friendship that\'s tested when Lori, John\'s girlfriend of four years, wants more from their relationship.\r\nhttp://www.imdb.com/title/tt1637725/\r\n------------------------------------------------------------------------------------------
Ted 2012 TS XViD~sC0rp/Sample.avi 2.994 MB
Ted 2012 TS XViD~sC0rp/Ted 2012 TS XViD~sC0rp.avi 863.876 MB
Gathering some info...

Register and log in Isohunt and see no captcha anymore!

4000 symbols left
Hash 2cdc3fbeb612cc16068a7e83cd00c32e89ee4668

Related torrents for "Ted 2012 TS XViD~sC0rp"

Torrent search:

telesync 2012