Abraham Lincoln Vampire Hunter 2012

Size 730.715 MB   0 seeders     Added 2012-07-23 00:26:02

To download or stream you need BitLord. Visit them at BitLord.com
[IMG]image[/IMG]


Plot:
Explores the secret life of the America's greatest president, Abraham Lincoln, and the untold story that shaped their nation. The president discovers blood-thirsty vampires are planning to take over the United States. Lincoln makes it his mission to eliminate them, becoming history's greatest hunter of the undead.

IMDB: 6,5/10 from 3,749 users http://www.imdb.com/title/tt1611224/


Format                           : AVI
Format/Info                      : Audio Video Interleave
File size                        : 697 MiB
Duration                         : 1h 33mn
Overall bit rate                 : 1 038 Kbps
Writing application              : VirtualDubMod 1.5.10.3 | www.virtualdub-fr.org || (build 2550/release)
Writing library                  : VirtualDub build 32661/release

Video
ID                               : 0
Format                           : MPEG-4 Visual
Format profile                   : Simple@L3
Format settings, BVOP            : No
Format settings, QPel            : No
Format settings, GMC             : No warppoints
Format settings, Matrix          : Default (H.263)
Codec ID                         : XVID
Codec ID/Hint                    : XviD
Duration                         : 1h 33mn
Bit rate                         : 900 Kbps
Width                            : 720 pixels
Height                           : 288 pixels
Display aspect ratio             : 2.500
Frame rate                       : 25.000 fps
Color space                      : YUV
Chroma subsampling               : 4:2:0
Bit depth                        : 8 bits
Scan type                        : Progressive
Bits/(Pixel*Frame)               : 0.174
Stream size                      : 604 MiB (87%)
Writing library                  : XviD 64

Audio
ID                               : 1
Format                           : MPEG Audio
Format version                   : Version 1
Format profile                   : Layer 3
Mode                             : Joint stereo
Mode extension                   : MS Stereo
Codec ID                         : 55
Codec ID/Hint                    : MP3
Duration                         : 1h 33mn
Bit rate mode                    : Constant
Bit rate                         : 128 Kbps
Channel(s)                       : 2 channels
Sampling rate                    : 44.1 KHz
Stream size                      : 86.0 MiB (12%)
Alignment                        : Split accross interleaves
Interleave, duration             : 40 ms (1.00 video frame)
Interleave, preload duration     : 500 ms
Writing library                  : LAME3.98.2
Abraham Lincoln Vampire Hunter 2012/Abraham Lincoln Vampire Hunter2.rar 730.712 MB
Abraham Lincoln Vampire Hunter 2012/Abraham Lincoln Vampire Hunter (2012) .txt 2.696 KB
Gathering some info...

Register and log in Isohunt and see no captcha anymore!

4000 symbols left
Hash 77d7aed82858676b96cf0b501051047ace56bd0c

Related torrents for "Abraham Lincoln Vampire Hunter 2012"

Torrent search:

2012