imdb
rating

6.7
Hamburger Hill

Hamburger Hill (1987)

Action, Drama, War

Full description
quality   dvdr x264 bd dvdrip h264 fullhd hd

Hamburger Hill 1987 DVDrip English Skandale

Size 2.188 GB   0 seeders     Added 2012-07-24 02:47:45

Stream torrent
Starting‥ You need BitLord! Get it from BitLord.com
To download or stream you need BitLord. Visit them at BitLord.com
[img] image [/img]

met Dylan McDermott, Steven Weber en Courtney B. Vance

Op 11 mei 1969 krijgen de soldaten van de 187ste Airborne Division de opdracht om heuvel 937, gelegen in de Ashauvallei, in te nemen. Hun taak wordt bemoeilijkt door zware regenval en kost veel mensenlevens. Op 15 mei krijgen ze de hulp van luchttroepen en wordt een bunker ingenomen. De gewonden worden afgevoerd en de post doorgenomen. 's Anderendaags gaat de strijd weer door. Er vindt een vreselijke veldslag plaats. Na een zeer bloedige strijd van tien dagen slagen ze in hun opdracht. Maar kort nadien komt het bevel om onmiddellijk de heuvel te ontruimen...

A very realistic interpretation of one of the bloodiest battles of the Vietnam War.

http://www.imdb.com/title/tt0093137/


------------------------ Dutch Friends ------------------------
---------------------------------------------------------------
- Bezoek ook eens mijn vrienden op:  http://www.Film-Test.nl --
----- voor mijn Nederlandse Sync. ondertitels ---- en meer ----
------- http://www.Film-Test.nl ---- voor Films en meer -------
---------------------------------------------------------------

General
Complete name                            : Hamburger Hill.avi
Format                                   : AVI
Format/Info                              : Audio Video Interleave
File size                                : 2.04 GiB
Duration                                 : 1h 45mn
Overall bit rate                         : 2 775 Kbps

Video
ID                                       : 0
Format                                   : MPEG-4 Visual
Format profile                           : Simple@L3
Format settings, BVOP                    : No
Format settings, QPel                    : No
Format settings, GMC                     : No warppoints
Format settings, Matrix                  : Default (H.263)
Codec ID                                 : XVID
Codec ID/Hint                            : XviD
Duration                                 : 1h 45mn
Source duration                          : 1h 45mn
Bit rate                                 : 2 316 Kbps
Width                                    : 720 pixels
Height                                   : 304 pixels
Display aspect ratio                     : 2.35:1
Frame rate                               : 25.000 fps
Color space                              : YUV
Chroma subsampling                       : 4:2:0
Bit depth                                : 8 bits
Scan type                                : Progressive
Compression mode                         : Lossy
Bits/(Pixel*Frame)                       : 0.423
Stream size                              : 1.70 GiB (83%)
Writing library                          : XviD 1.1.2 (UTC 2006-11-01)

Audio
ID                                       : 1
Format                                   : AC-3
Format/Info                              : Audio Coding 3
Mode extension                           : CM (complete main)
Format settings, Endianness              : Big
Codec ID                                 : 2000
Duration                                 : 1h 45mn
Bit rate mode                            : Constant
Bit rate                                 : 448 Kbps
Channel(s)                               : 6 channels
Channel positions                        : Front: L C R, Side: L R, LFE
Sampling rate                            : 48.0 KHz
Bit depth                                : 16 bits
Compression mode                         : Lossy
Stream size                              : 337 MiB (16%)
Alignment                                : Aligned on interleaves
Interleave, duration                     : 32 ms (0.80 video frame)
Interleave, preload duration             : 1760 ms
Hamburger Hill.avi 2.188 GB
Cover/753Hamburger_Hill_CC_Custom.jpg 150.555 KB
flyer.jpg 33.678 KB
Gathering some info...

Register and log in Isohunt and see no captcha anymore!

4000 symbols left
Hash 34E8CB2D42357E8A07186D8FF932E2E5F69F5BD7

Related torrents for "Hamburger Hill 1987 DVDrip English Skandale"

Torrent search:

dvdrip english 1987