imdb
rating

8.5
The Dark Knight Rises

The Dark Knight Rises (2012)

Action, Crime, Drama, Thriller

Full description

The Dark Knight Rises (2012) Batman DVDRip XViD.avi

Size 795.869 MB   0 seeders     Added 2012-07-24 02:52:08

Stream torrent
Starting‥ You need BitLord! Get it from BitLord.com
10
To download or stream you need BitLord. Visit them at BitLord.com
-------------------------------------------------------------------\r\nPlease share....Dont hit and run...Seed it back at least once.\r\n\r\nOf course, if you want to seed it back more than once, that would be ok too :)\r\n-------------------------------------------------------------------	\r\n\r\nQUALITY:  PERFECT 10/10\r\n\r\nAll details are here: \r\n\r\nFormat  | AVI           Language | ENGLISH  \r\nSource  | DVD PAL       Subs     | NONE \r\n\r\nQUALITY:  PERFECT 10/10\r\n\r\n- Video\r\nID                               : 0\r\nFormat                           : MPEG-4 Visual\r\nFormat profile                   : Advanced Simple@L5\r\nFormat settings, BVOP            : Yes\r\nFormat settings, QPel            : No\r\nFormat settings, GMC             : No warppoints\r\nFormat settings, Matrix          : Default (H.263)\r\nMuxing mode                      : Packed bitstream\r\nCodec ID                         : XVID\r\nCodec ID/Hint                    : XviD\r\nBit rate                         : 1 345 Kbps\r\nWidth                            : 720 pixels\r\nHeight                           : 314 pixels\r\nDisplay aspect ratio             : 2.25:1\r\nFrame rate                       : 29.970 fps\r\nColor space                      : YUV\r\nChroma subsampling               : 4:2:0\r\nBit depth                        : 8 bits\r\nScan type                        : Progressive\r\nCompression mode                 : Lossy\r\nBits/(Pixel*Frame)               : 0.198\r\nStream size                      : 1.19 GiB (87%)\r\nWriting library                  : XviD 1.1.0 (UTC 2005-11-22)\r\n\r\n- Audio\r\nID                               : 1\r\nFormat                           : AC-3\r\nFormat/Info                      : Audio Coding 3\r\nMode extension                   : CM (complete main)\r\nCodec ID                         : 2000\r\nBit rate mode                    : Constant\r\nBit rate                         : 192 Kbps\r\nChannel(s)                       : 2 channels\r\nChannel positions                : Front: L R\r\nSampling rate                    : 48.0 KHz\r\nBit depth                        : 16 bits\r\nCompression mode                 : Lossy\r\nStream size                      : 175 MiB (12%)\r\nAlignment                        : Aligned on interleaves\r\nInterleave, duration             : 33 ms (1.00 video frame)\r\nInterleave, preload duration     : 512 ms
The Dark Knight Rises (2012) Batman DVDRip XViD.avi 795.869 MB
Gathering some info...

Register and log in Isohunt and see no captcha anymore!

4000 symbols left
Hash DBCD4FA0A3EC870DC49A9107CB850651A02F3FF6

Related torrents for "The Dark Knight Rises (2012) Batman DVDRip XViD.avi"

Torrent search:

dvdrip 2012