Step Up Revolution (2012) Hindi DVDRip XviD E-SuB xRG

Size 954.059 MB   0 seeders     Added 2012-07-25 10:46:27

Stream torrent
Starting‥ You need BitLord! Get it from BitLord.com
7.3
To download or stream you need BitLord. Visit them at BitLord.com
Step Up Revolution (2012)\r\n\r\nFormat                           : AVI\r\nFormat/Info                      : Audio Video Interleave\r\nFormat profile                   : OpenDML\r\nFile size                        : 909 MiB\r\nDuration                         : 1h 49mn\r\nOverall bit rate                 : 1 714 Kbps\r\nWriting application              : VirtualDubMod 1.5.10.2 (build 2542/release)\r\nWriting library                  : VirtualDubMod build 2542/release\r\nOriginal source form             : MAX TORRENTZ\r\n\r\nVideo\r\nID                               : 0\r\nFormat                           : MPEG-4 Visual\r\nFormat profile                   : AdvancedSimple@L5\r\nFormat settings, BVOP            : Yes\r\nFormat settings, QPel            : No\r\nFormat settings, GMC             : No warppoints\r\nFormat settings, Matrix          : Default (H.263)\r\nCodec ID                         : XVID\r\nCodec ID/Hint                    : XviD\r\nDuration                         : 1h 49mn\r\nBit rate                         : 1 325 Kbps\r\nWidth                            : 640 pixels\r\nHeight                           : 272 pixels\r\nDisplay aspect ratio             : 2.35:1\r\nFrame rate                       : 23.976 fps\r\nResolution                       : 24 bits\r\nColorimetry                      : 4:2:0\r\nScan type                        : Progressive\r\nBits/(Pixel*Frame)               : 0.318\r\nStream size                      : 526 MiB (77%)\r\nWriting library                  : XviD 61\r\n\r\nAudio\r\nID                               : 1\r\nFormat                           : AC-3\r\nFormat/Info                      : Audio Coding 3\r\nCodec ID                         : 2000\r\nDuration                         : 1h 49mn\r\nBit rate mode                    : Constant\r\nBit rate                         : 384 Kbps\r\nChannel(s)                       : 6 channels\r\nChannel positions                : Front: L C R, Surround: L R, LFE\r\nSampling rate                    : 48.0 KHz\r\nStream size                      : 147 MiB (22%)\r\nAlignment                        : Aligned on interleaves\r\nInterleave, duration             : 64 ms (1.54 video frames)\r\nInterleave, preload duration     : 192 ms\r\n\r\n\r\nhttp://www.imdb.com/title/tt1800741/\r\n\r\n\r\nHow To Get Your Maxspeed (uTorrent)\r\n\r\nTorrent Client - Preferences - Bandwidth - Number of connections - Set aprox. 500 for each \r\nTorrent Client - Preferences - BiTorrent - Protocol Encryption - Forced\r\nBandwidth Allocation - High (Set download/upload limit - Unlimited)\r\nStop Other Active Torrents - Start downloading and wait for connections.\r\nEnjoy and Seed for at least 1:1 ratio. Don\'t forget to say thanks/leave reviews.\r\nBefore downloading you should check/google search sample \"release name\"\"sample\".\r\nGreets to all actual/future p2p/scene QUALITY groups and affiliate websites.\r\nDon\'t trust IMDb robot or bad ratings,always watch some trailers first.\r\nIgnore stupid comments/fake/mislabeled/no-DVDrips/CAM/TS/RAR uploads.\r\nPlease spread this release/torrent to your friends/forums/etc.\r\nIf you need translation subs visit some subtitles sites.\r\nReport if you see online streaming or other spam links.\r\nRecommended movie player VLC PLAYER.\r\n\r\n
Step Up Revolution (2012) Hindi DVDRip XviD E-SuB xRG/Step Up Revolution (2012) Hindi DVDRip XviD E-SuB xRG.avi 954.054 MB
Step Up Revolution (2012) Hindi DVDRip XviD E-SuB xRG/Step Up Revolution (2012).nfo 4.858 KB
Step Up Revolution (2012) Hindi DVDRip XviD E-SuB xRG/Torrent downloaded from Extratorrent.com.txt 43 B
Gathering some info...

Register and log in Isohunt and see no captcha anymore!

4000 symbols left
Hash 7e97886befc4d3983c0e6581ee9527dc86579e21

Related torrents for "Step Up Revolution (2012) Hindi DVDRip XviD E-SuB xRG"

Torrent search:

dvdrip hindi 2012